<?xml version="1.0" standalone="no"?>
<!DOCTYPE svg PUBLIC "-//W3C//DTD SVG 1.1//EN" "http://www.w3.org/Graphics/SVG/1.1/DTD/svg11.dtd" >
<svg>
<metadata>
Created by FontForge 20090914 at Wed Nov 30 10:42:21 2022
 By www-data
Copyright 2021 The Red Hat Project Authors (https://github.com/RedHatOfficial/RedHatFont)
</metadata>
<defs>
<font id="RedHatDisplay-Light" horiz-adv-x="600" >
  <font-face 
    font-family="Red Hat Display Light"
    font-weight="300"
    font-stretch="normal"
    units-per-em="1000"
    panose-1="2 1 3 3 4 2 1 6 3 3"
    ascent="800"
    descent="-200"
    x-height="492"
    cap-height="700"
    bbox="-71.001 -254 1047 1002"
    underline-thickness="100"
    underline-position="-150"
    unicode-range="U+0020-U+FFFD"
  />
<missing-glyph horiz-adv-x="514" 
d="M60 -100v850h394v-850h-394z" />
    <glyph glyph-name=".notdef" horiz-adv-x="514" 
d="M60 -100v850h394v-850h-394z" />
    <glyph glyph-name="space" unicode=" " horiz-adv-x="221" 
 />
    <glyph glyph-name="exclam" unicode="!" horiz-adv-x="178" 
d="M70 187l-5 518h48l-5 -518h-38zM89 -5c-10 0 -18.667 3.66699 -26 11s-11 16.333 -11 27c0 10 3.66699 18.667 11 26s16 11 26 11c10.667 0 19.5 -3.66699 26.5 -11s10.5 -16 10.5 -26c0 -10.667 -3.5 -19.667 -10.5 -27s-15.833 -11 -26.5 -11z" />
    <glyph glyph-name="quotedbl" unicode="&#x22;" horiz-adv-x="265" 
d="M65 530l-8 170h49l-9 -170h-32zM167 530l-8 170h49l-9 -170h-32z" />
    <glyph glyph-name="numbersign" unicode="#" horiz-adv-x="670" 
d="M83 0l66 230h-119v40h130l46 160h-126v40h137l66 230h43l-66 -230h219l66 230h43l-66 -230h118v-40h-129l-46 -160h125v-40h-136l-66 -230h-43l66 230h-219l-66 -230h-43zM203 270h219l46 160h-219z" />
    <glyph glyph-name="dollar" unicode="$" horiz-adv-x="552" 
d="M257 -67l0.00292969 84.999c-43.333 4 -84.666 15.833 -123.999 35.5s-74 46.5 -104 80.5l34 30c53.333 -61.333 118 -95.666 194 -102.999v279l-30 7c-66.667 16 -114 36.333 -142 61s-42 60 -42 106c0 33.333 9.16699 62.5 27.5 87.5s43.666 44.667 75.999 59
s69.166 21.5 110.499 21.5v85h43v-87c37.333 -4.66699 73.666 -14.5 108.999 -29.5s68.333 -34.833 99 -59.5l-28 -34c-26.667 22 -55.334 39.833 -86.001 53.5s-62 22.5 -94 26.5v-263l27 -6c70 -16 119.667 -36.667 149 -62s44 -61.333 44 -108
c0 -33.333 -9.5 -63.333 -28.5 -90s-45 -48 -78 -64s-70.833 -25 -113.5 -27v-84h-43zM257.003 383.999v256c-50.667 0 -91.667 -11.5 -123 -34.5s-47 -53.5 -47 -91.5c0 -22.667 4.5 -41.5 13.5 -56.5s24.5 -27.833 46.5 -38.5s52 -20.667 90 -30zM300.003 58.999
c52 2 94.333 16.001 127 42.001s49 58.333 49 97c0 23.333 -4.83301 42.666 -14.5 57.999s-26 28.5 -49 39.5s-54.833 21.167 -95.5 30.5l-17 4v-271z" />
    <glyph glyph-name="percent" unicode="%" horiz-adv-x="714" 
d="M173 345c-41.333 0 -75.5 16.5 -102.5 49.5s-40.5 76.5 -40.5 130.5s13.5 97.5 40.5 130.5s61.167 49.5 102.5 49.5s75.5 -16.5 102.5 -49.5s40.5 -76.5 40.5 -130.5s-13.5 -97.5 -40.5 -130.5s-61.167 -49.5 -102.5 -49.5zM173 379c31.333 0 56.833 13.167 76.5 39.5
s29.5 61.833 29.5 106.5c0 45.333 -9.83301 81 -29.5 107s-45.167 39 -76.5 39s-56.833 -13 -76.5 -39s-29.5 -61.667 -29.5 -107c0 -44.667 9.83301 -80.167 29.5 -106.5s45.167 -39.5 76.5 -39.5zM141 0l393 700h43l-393 -700h-43zM544 -5
c-41.333 0 -75.5 16.5 -102.5 49.5s-40.5 76.5 -40.5 130.5s13.5 97.5 40.5 130.5s61.167 49.5 102.5 49.5s75.5 -16.5 102.5 -49.5s40.5 -76.5 40.5 -130.5s-13.5 -97.5 -40.5 -130.5s-61.167 -49.5 -102.5 -49.5zM544 29c31.333 0 56.833 13.167 76.5 39.5
s29.5 61.833 29.5 106.5c0 45.333 -9.83301 81 -29.5 107s-45.167 39 -76.5 39s-56.833 -13 -76.5 -39s-29.5 -61.667 -29.5 -107c0 -44.667 9.83301 -80.167 29.5 -106.5s45.167 -39.5 76.5 -39.5z" />
    <glyph glyph-name="ampersand" unicode="&#x26;" horiz-adv-x="639" 
d="M251 -11c-46 0 -85.833 8.33301 -119.5 25s-59.667 39.834 -78 69.501s-27.5 64.167 -27.5 103.5c0 27.333 5 52.5 15 75.5s27 45 51 66s56.333 42.167 97 63.5c-23.333 30.667 -40 58.167 -50 82.5s-15 49.833 -15 76.5c0 29.333 6.66699 56.166 20 80.499
s31.833 43.666 55.5 57.999s50.834 21.5 81.501 21.5c30 0 55.667 -6 77 -18s37.666 -28.167 48.999 -48.5s17 -43.5 17 -69.5c0 -34.667 -9.66699 -65 -29 -91s-49 -50.667 -89 -74l-49 -29c29.333 -33.333 63 -69 101 -107l115 -110c17.333 28 32.333 59.167 45 93.5
s22 70.833 28 109.5l46 -8c-8 -45.333 -19.5 -86.666 -34.5 -123.999s-32.167 -71 -51.5 -101l66.5 -56l67.5 -54l-28 -33l-66.5 52.5l-65.5 55.5c-29.333 -36 -63.5 -63.333 -102.5 -82s-81.167 -28 -126.5 -28zM230 411l64 37c30 17.333 51.667 36.666 65 57.999
s20 44 20 68c0 26 -9.33301 48.333 -28 67s-42.667 28 -72 28c-32.667 0 -59.167 -11.167 -79.5 -33.5s-30.5 -50.166 -30.5 -83.499c0 -24.667 4.66699 -47.667 14 -69s25 -45.333 47 -72zM251 31c39.333 0 75.8311 8.49805 109.498 25.498s62.5 40.833 86.5 71.5
c-45.333 41.333 -88.166 82.333 -128.499 123s-74.166 76.667 -101.499 108c-40 -20.667 -70.5 -40.167 -91.5 -58.5s-35.167 -36.666 -42.5 -54.999s-11 -38.166 -11 -59.499c0 -46.667 16.667 -84.167 50 -112.5s76.333 -42.5 129 -42.5z" />
    <glyph glyph-name="quotesingle" unicode="'" horiz-adv-x="163" 
d="M65 530l-8 170h49l-9 -170h-32z" />
    <glyph glyph-name="parenleft" unicode="(" horiz-adv-x="379" 
d="M313 -221c-78.667 47.333 -139 111 -181 191s-63 172.333 -63 277s21 197.167 63 277.5s102.333 143.833 181 190.5l23 -35c-70 -40 -124.333 -97.833 -163 -173.5s-58 -162.167 -58 -259.5c0 -96.667 19.333 -183 58 -259s93 -134 163 -174z" />
    <glyph glyph-name="parenright" unicode=")" horiz-adv-x="379" 
d="M66 716c78.667 -47.333 139 -111 181 -191s63 -172.333 63 -277s-21 -197.167 -63 -277.5s-102.333 -143.833 -181 -190.5l-23 35c70 40 124.333 97.833 163 173.5s58 162.167 58 259.5c0 96.667 -19.333 183 -58 259s-93 134 -163 174z" />
    <glyph glyph-name="asterisk" unicode="*" horiz-adv-x="432" 
d="M197 352l2 149l-126 -78l-19 31l128 78l-123 74l20 30l120 -74l-2 138h38l-2 -137l120 73l20 -30l-124 -74l129 -78l-20 -30l-125 78l2 -150h-38z" />
    <glyph glyph-name="plus" unicode="+" 
d="M279 152v185h-168v41h168v182h41v-182h168v-41h-168v-185h-41z" />
    <glyph glyph-name="comma" unicode="," horiz-adv-x="250" 
d="M63 -131l53 188h51l-66 -188h-38z" />
    <glyph glyph-name="hyphen" unicode="-" horiz-adv-x="442" 
d="M53 258v44h336v-44h-336z" />
    <glyph glyph-name="period" unicode="." horiz-adv-x="250" 
d="M125 -5c-10.667 0 -19.667 3.66699 -27 11s-11 16.333 -11 27s3.66699 19.667 11 27s16.333 11 27 11s19.667 -3.66699 27 -11s11 -16.333 11 -27s-3.66699 -19.667 -11 -27s-16.333 -11 -27 -11z" />
    <glyph glyph-name="slash" unicode="/" horiz-adv-x="433" 
d="M-66 -204l420 904h47l-420 -904h-47z" />
    <glyph glyph-name="zero" unicode="0" horiz-adv-x="650" 
d="M325 -11c-52.667 0 -99.667 15 -141 45s-74 72.167 -98 126.5s-36 117.5 -36 189.5s12 135.167 36 189.5s56.667 96.5 98 126.5s88.333 45 141 45s99.667 -15 141 -45s74 -72.167 98 -126.5s36 -117.5 36 -189.5s-12 -135.167 -36 -189.5s-56.667 -96.5 -98 -126.5
s-88.333 -45 -141 -45zM325 31c45.333 0 85.166 12.833 119.499 38.5s61.166 62.334 80.499 110.001s29 104.5 29 170.5s-9.66699 122.833 -29 170.5s-46.166 84.334 -80.499 110.001s-74.166 38.5 -119.499 38.5s-85.166 -12.833 -119.499 -38.5
s-61.166 -62.334 -80.499 -110.001s-29 -104.5 -29 -170.5s9.66699 -122.833 29 -170.5s46.166 -84.334 80.499 -110.001s74.166 -38.5 119.499 -38.5z" />
    <glyph glyph-name="one" unicode="1" horiz-adv-x="262" 
d="M140 0v649l-109 -51v46l119 56h34v-700h-44z" />
    <glyph glyph-name="two" unicode="2" horiz-adv-x="535" 
d="M53 0l-0.00292969 34.999l269 309c26.667 30.667 47.334 56.334 62.001 77.001s25 39.667 31 57s9 35.333 9 54c0 39.333 -15 72 -45 98s-68.667 39 -116 39c-33.333 0 -64.166 -6.5 -92.499 -19.5s-60.166 -35.5 -95.499 -67.5l-28 33c35.333 32 70.5 56 105.5 72
s71.833 24 110.5 24c40 0 75.5 -7.66699 106.5 -23s55.5 -36.333 73.5 -63s27 -57 27 -91c0 -23.333 -3 -44.5 -9 -63.5s-17 -39.833 -33 -62.5s-39.667 -52 -71 -88l-241 -278h370v-42h-433z" />
    <glyph glyph-name="three" unicode="3" horiz-adv-x="573" 
d="M275 -11c-45.333 0 -87.6709 8.16211 -127.004 24.4951s-75.333 39.833 -108 70.5l29 31c30 -28.667 61.833 -49.834 95.5 -63.501s70.167 -20.5 109.5 -20.5c36.667 0 69.167 6.83301 97.5 20.5s50.666 32.334 66.999 56.001s24.5 50.834 24.5 81.501
c0 28.667 -7.33301 54.5 -22 77.5s-34.667 41.167 -60 54.5s-54.666 20 -87.999 20h-80v41h82c41.333 0 74.833 13.167 100.5 39.5s38.5 60.5 38.5 102.5c0 26.667 -7.16699 50.834 -21.5 72.501s-34 39.167 -59 52.5s-53.167 20 -84.5 20
c-36.667 0 -70.167 -6.5 -100.5 -19.5s-60.5 -34.833 -90.5 -65.5l-28 32c31.333 31.333 65 55 101 71s75 24 117 24c40.667 0 76.834 -8.33301 108.501 -25s56.834 -39.167 75.501 -67.5s28 -60.166 28 -95.499s-10.667 -67.166 -32 -95.499s-50.666 -49.5 -87.999 -63.5
c44.667 -12 80.667 -34 108 -66s41 -68 41 -108c0 -38.667 -10.167 -73.167 -30.5 -103.5s-48.166 -54.166 -83.499 -71.499s-75.333 -26 -120 -26z" />
    <glyph glyph-name="four" unicode="4" horiz-adv-x="594" 
d="M425 0v197h-395v35l393 468h46v-461h83v-42h-83v-197h-44zM91 239h334v397z" />
    <glyph glyph-name="five" unicode="5" horiz-adv-x="558" 
d="M272 -11c-88 0 -165 32.333 -231 97l30 29c30.667 -30.667 61.667 -52.334 93 -65.001s67.333 -19 108 -19c36.667 0 68.834 7.83301 96.501 23.5s49.5 37.667 65.5 66s24 60.833 24 97.5c0 51.333 -17 92.833 -51 124.5s-78.667 47.5 -134 47.5
c-28 0 -55.667 -3.16699 -83 -9.5s-56 -17.166 -86 -32.499l-31 11l16 341h378v-42h-336l-12 -264c28.667 13.333 55.167 23 79.5 29s50.5 9 78.5 9c45.333 0 85 -8.83301 119 -26.5s60.5 -42.5 79.5 -74.5s28.5 -69 28.5 -111c0 -46 -9.66699 -86.333 -29 -121
s-46.333 -61.667 -81 -81s-75.334 -29 -122.001 -29z" />
    <glyph glyph-name="six" unicode="6" horiz-adv-x="611" 
d="M329 -11c-52 0 -97.998 14.1641 -137.998 42.4971s-71.333 67.333 -94 117s-34 106.5 -34 170.5c0 78.667 12.833 147.334 38.5 206.001s61.667 104.334 108 137.001s100.166 49 161.499 49c26 0 51.667 -3.16699 77 -9.5s49 -15.166 71 -26.499l-19 -39
c-20 10 -41.667 18 -65 24s-45.666 9 -66.999 9c-51.333 0 -96 -13.5 -134 -40.5s-67.667 -65.667 -89 -116s-32.666 -110.5 -33.999 -180.5c28 33.333 60.667 59.5 98 78.5s75.666 28.5 114.999 28.5c45.333 0 85.666 -9.5 120.999 -28.5s63 -45.167 83 -78.5
s30 -71.666 30 -114.999s-9.83301 -82.333 -29.5 -117s-46.834 -61.834 -81.501 -81.501s-74 -29.5 -118 -29.5zM320.002 396.997c-38.667 0 -76.3311 -10.333 -112.998 -31s-68.334 -48.667 -95.001 -84c4 -50 15.5 -93.833 34.5 -131.5s44.167 -67 75.5 -88
s67.333 -31.5 108 -31.5c35.333 0 66.666 8.16699 93.999 24.5s48.833 38.333 64.5 66s23.5 58.834 23.5 93.501c0 35.333 -8 66.666 -24 93.999s-38.5 48.833 -67.5 64.5s-62.5 23.5 -100.5 23.5z" />
    <glyph glyph-name="seven" unicode="7" horiz-adv-x="542" 
d="M100 0l361 658h-432v42h485v-35l-365 -665h-49z" />
    <glyph glyph-name="eight" unicode="8" horiz-adv-x="608" 
d="M305 -11c-46 0 -87.332 8.50098 -123.999 25.501s-65.667 40.5 -87 70.5s-32 64 -32 102c0 29.333 7.5 56.666 22.5 81.999s35.5 47.333 61.5 66s56 32 90 40c-44 11.333 -79 31.5 -105 60.5s-39 62.5 -39 100.5c0 33.333 9.33301 63.166 28 89.499s44 47.166 76 62.499
s68 23 108 23c40.667 0 77 -7.66699 109 -23s57.333 -36.166 76 -62.499s28 -56.166 28 -89.499c0 -38 -12.833 -71.5 -38.5 -100.5s-60.167 -49.167 -103.5 -60.5c51.333 -12 92.666 -35 123.999 -69s47 -73.667 47 -119c0 -38 -10.5 -72 -31.5 -102
s-49.5 -53.5 -85.5 -70.5s-77.333 -25.5 -124 -25.5zM304.001 392.001c32 0 60.667 6.16699 86 18.5s45.333 29 60 50s22 44.5 22 70.5s-7.33301 49.333 -22 70s-34.667 37.167 -60 49.5s-54 18.5 -86 18.5c-31.333 0 -59.666 -6.16699 -84.999 -18.5
s-45.333 -28.833 -60 -49.5s-22 -44 -22 -70s7.33301 -49.5 22 -70.5s34.667 -37.667 60 -50s53.666 -18.5 84.999 -18.5zM304.001 31.001c36.667 0 69.834 7 99.501 21s53.167 33.167 70.5 57.5s26 51.166 26 80.499c0 30 -8.66699 57.167 -26 81.5
s-40.833 43.5 -70.5 57.5s-62.834 21 -99.501 21s-69.834 -7 -99.501 -21s-53.167 -33.167 -70.5 -57.5s-26 -51.5 -26 -81.5c0 -29.333 8.66699 -56.166 26 -80.499s40.833 -43.5 70.5 -57.5s62.834 -21 99.501 -21z" />
    <glyph glyph-name="nine" unicode="9" horiz-adv-x="611" 
d="M282 711c52 0 97.998 -14.165 137.998 -42.498s71.333 -67.333 94 -117s34 -106.5 34 -170.5c0 -78.667 -12.833 -147.334 -38.5 -206.001s-61.5 -104.334 -107.5 -137.001s-100 -49 -162 -49c-26 0 -51.667 3.16699 -77 9.5s-49 15.166 -71 26.499l19 39
c20 -10 41.833 -18 65.5 -24s45.834 -9 66.501 -9c52 0 96.833 13.5 134.5 40.5s67.167 65.833 88.5 116.5s32.666 110.667 33.999 180c-28 -33.333 -60.667 -59.5 -98 -78.5s-75.666 -28.5 -114.999 -28.5c-45.333 0 -85.666 9.5 -120.999 28.5s-63 45.333 -83 79
s-30 71.834 -30 114.501c0 44 10 83.167 30 117.5s47.167 61.333 81.5 81s73.5 29.5 117.5 29.5zM290.998 303.002c38.667 0 76.332 10.3359 112.999 31.0029s68.334 48.667 95.001 84c-3.33301 50 -14.666 93.833 -33.999 131.5s-44.666 67 -75.999 88
s-67.333 31.5 -108 31.5c-34.667 0 -65.834 -8.16699 -93.501 -24.5s-49.334 -38.333 -65.001 -66s-23.5 -58.834 -23.5 -93.501s8.16699 -65.834 24.5 -93.501s38.833 -49.334 67.5 -65.001s62 -23.5 100 -23.5z" />
    <glyph glyph-name="colon" unicode=":" horiz-adv-x="250" 
d="M125 -5c-10.667 0 -19.667 3.66699 -27 11s-11 16.333 -11 27s3.66699 19.667 11 27s16.333 11 27 11s19.667 -3.66699 27 -11s11 -16.333 11 -27s-3.66699 -19.667 -11 -27s-16.333 -11 -27 -11zM125 422c-10.667 0 -19.667 3.66699 -27 11s-11 16.333 -11 27
s3.66699 19.667 11 27s16.333 11 27 11s19.667 -3.66699 27 -11s11 -16.333 11 -27s-3.66699 -19.667 -11 -27s-16.333 -11 -27 -11z" />
    <glyph glyph-name="semicolon" unicode=";" horiz-adv-x="250" 
d="M140 422c-10.667 0 -19.667 3.66699 -27 11s-11 16.333 -11 27s3.66699 19.667 11 27s16.333 11 27 11s19.667 -3.66699 27 -11s11 -16.333 11 -27s-3.66699 -19.667 -11 -27s-16.333 -11 -27 -11zM63 -131l53 188h51l-66 -188h-38z" />
    <glyph glyph-name="less" unicode="&#x3c;" 
d="M425 123l-304 226l304 226l23 -31l-263 -194l263 -194z" />
    <glyph glyph-name="equal" unicode="=" 
d="M111 263v41h377v-41h-377zM111 412v41h377v-41h-377z" />
    <glyph glyph-name="greater" unicode="&#x3e;" 
d="M175 575l304 -226l-304 -226l-23 31l263 194l-263 194z" />
    <glyph glyph-name="question" unicode="?" horiz-adv-x="500" 
d="M195 193c-1.33301 28 0.167969 53.332 4.50098 75.999s12.833 43.334 25.5 62.001s30.667 36.334 54 53.001l41 29c30 21.333 52 41.666 66 60.999s21 43.333 21 72c0 22.667 -7.16699 43.167 -21.5 61.5s-33.5 32.833 -57.5 43.5s-51.333 16 -82 16
c-31.333 0 -62.5 -7 -93.5 -21s-61.167 -37.667 -90.5 -71l-33 35c23.333 24 47.166 43.5 71.499 58.5s49 25.833 74 32.5s49.833 10 74.5 10c40 0 75.333 -7.5 106 -22.5s54.667 -35 72 -60s26 -53.167 26 -84.5c0 -24.667 -4 -46.167 -12 -64.5
s-20.333 -35.666 -37 -51.999s-38 -33.5 -64 -51.5l-38 -27c-28.667 -20 -47.5 -42.833 -56.5 -68.5s-12.167 -54.834 -9.5 -87.501h-41zM216.001 -5.00098c-10.667 0 -19.667 3.66699 -27 11s-11 16.333 -11 27c0 10 3.66699 18.667 11 26s16.333 11 27 11
c10 0 18.667 -3.66699 26 -11s11 -16 11 -26c0 -10.667 -3.66699 -19.667 -11 -27s-16 -11 -26 -11z" />
    <glyph glyph-name="at" unicode="@" horiz-adv-x="771" 
d="M399 -144c-50 0 -96.498 8.83105 -139.498 26.498s-80.5 42.334 -112.5 74.001s-57 68.834 -75 111.501s-27 89 -27 139c0 52 8.83301 100.333 26.5 145s42.334 83.5 74.001 116.5s68.667 58.833 111 77.5s88.5 28 138.5 28c47.333 0 91 -7.83301 131 -23.5
s75 -37.334 105 -65.001s53.333 -60.334 70 -98.001s25 -78.5 25 -122.5c0 -39.333 -7.5 -74.666 -22.5 -105.999s-35.333 -56 -61 -74s-54.834 -27 -87.501 -27c-42 0 -71.333 14 -88 42c-16.667 -15.333 -34.334 -27.166 -53.001 -35.499s-37 -12.5 -55 -12.5
c-26.667 0 -50.834 6.5 -72.501 19.5s-38.667 30.833 -51 53.5s-18.5 48.334 -18.5 77.001c0 32 7.5 61.167 22.5 87.5s35 47.333 60 63s52.833 23.5 83.5 23.5c44.667 0 79.667 -14.333 105 -43l6 29h40l-38 -186c-5.33301 -26.667 -2.66602 -47.167 8.00098 -61.5
s28.334 -21.5 53.001 -21.5c24 0 45.667 7.66699 65 23s34.666 36.166 45.999 62.499s17 55.5 17 87.5c0 51.333 -12.833 97.5 -38.5 138.5s-60.5 73.333 -104.5 97s-93.667 35.5 -149 35.5c-42.667 0 -82.667 -8.5 -120 -25.5s-70 -40.333 -98 -70
s-49.833 -64.5 -65.5 -104.5s-23.5 -83 -23.5 -129c0 -60 13.833 -113.667 41.5 -161s65.5 -84.833 113.5 -112.5s102.333 -41.5 163 -41.5c63.333 0 120.666 14.333 171.999 43l15 -34c-27.333 -14.667 -57.333 -26 -90 -34s-66.667 -12 -102 -12zM367.002 86.998
c34.667 0 64.333 14.002 89 42.002c-1.33301 7.33301 -2 15.166 -2 23.499s1 16.833 3 25.5l22 111c-9.33301 15.333 -22.833 27.833 -40.5 37.5s-37.167 14.5 -58.5 14.5c-22 0 -42.333 -6.16699 -61 -18.5s-33.5 -28.833 -44.5 -49.5s-16.5 -43.667 -16.5 -69
c0 -34.667 10 -62.834 30 -84.501s46.333 -32.5 79 -32.5z" />
    <glyph glyph-name="A" unicode="A" horiz-adv-x="655" 
d="M8 0l292 700h57l291 -700h-50l-97 237h-347l-98 -237h-48zM171 278h313l-156 379z" />
    <glyph glyph-name="B" unicode="B" horiz-adv-x="641" 
d="M83 0l0.000976562 700h263c45.333 0 84 -7.16699 116 -21.5s56.333 -34.5 73 -60.5s25 -56.667 25 -92c0 -38.667 -10.833 -72 -32.5 -100s-52.167 -47.667 -91.5 -59c49.333 -10.667 87.5 -31 114.5 -61s40.5 -67.667 40.5 -113c0 -38 -9.33301 -71.5 -28 -100.5
s-45.334 -51.667 -80.001 -68s-76.667 -24.5 -126 -24.5h-274zM129.001 387h216c52.667 0 94.167 12.5 124.5 37.5s45.5 57.5 45.5 97.5s-15.167 72.5 -45.5 97.5s-71.833 37.5 -124.5 37.5h-216v-270zM129.001 43l224 -0.000976562c58.667 0 105.167 14 139.5 42
s51.5 64.333 51.5 109s-17.167 80.834 -51.5 108.501s-80.833 41.5 -139.5 41.5h-224v-301z" />
    <glyph glyph-name="C" unicode="C" horiz-adv-x="724" 
d="M407 -11c-50.667 0 -97.834 9.33301 -141.501 28s-81.667 44.5 -114 77.5s-57.666 71.333 -75.999 115s-27.5 90.5 -27.5 140.5s9.16699 96.833 27.5 140.5s43.666 82 75.999 115s70.333 58.833 114 77.5s90.834 28 141.501 28c34.667 0 68.167 -4 100.5 -12
s62.833 -20 91.5 -36s54.667 -36 78 -60l-30 -35c-28.667 31.333 -64.5 55.833 -107.5 73.5s-87.167 26.5 -132.5 26.5c-44.667 0 -85.834 -8.16699 -123.501 -24.5s-70.667 -39 -99 -68s-50.333 -62.667 -66 -101s-23.5 -79.833 -23.5 -124.5s7.83301 -86.167 23.5 -124.5
s37.667 -72 66 -101s61.333 -51.667 99 -68s78.834 -24.5 123.501 -24.5c45.333 0 89.5 9 132.5 27s78.833 42.333 107.5 73l30 -35c-23.333 -24 -49.333 -44 -78 -60s-59.167 -28 -91.5 -36s-65.833 -12 -100.5 -12z" />
    <glyph glyph-name="D" unicode="D" horiz-adv-x="713" 
d="M129 43h174c44.667 0 86.167 7.66699 124.5 23s71.666 36.833 99.999 64.5s50.5 60.167 66.5 97.5s24 78 24 122s-8 84.667 -24 122s-38.167 69.833 -66.5 97.5s-61.666 49.167 -99.999 64.5s-79.833 23 -124.5 23h-174v-614zM83 0v700h214
c55.333 0 105.5 -8.83301 150.5 -26.5s83.833 -42.167 116.5 -73.5s57.667 -68.333 75 -111s26 -89 26 -139s-8.66699 -96.333 -26 -139s-42.333 -79.667 -75 -111s-71.5 -55.833 -116.5 -73.5s-95.167 -26.5 -150.5 -26.5h-214z" />
    <glyph glyph-name="E" unicode="E" horiz-adv-x="602" 
d="M83 0v700h484v-43h-438v-282h286v-43h-286v-289h442v-43h-488z" />
    <glyph glyph-name="F" unicode="F" horiz-adv-x="592" 
d="M83 0v700h483v-43h-437v-287h286v-43h-286v-327h-46z" />
    <glyph glyph-name="G" unicode="G" horiz-adv-x="786" 
d="M406 -11c-50.667 0 -97.6689 9.33301 -141.002 28s-81.333 44.5 -114 77.5s-58 71.333 -76 115s-27 90.5 -27 140.5s9.16699 96.833 27.5 140.5s43.666 82 75.999 115s70.333 58.833 114 77.5s90.834 28 141.501 28c52 0 101.167 -9.16699 147.5 -27.5
s87.166 -45.166 122.499 -80.499l-30 -35c-28.667 31.333 -64.5 55.833 -107.5 73.5s-87.167 26.5 -132.5 26.5c-44.667 0 -85.834 -8.16699 -123.501 -24.5s-70.667 -39 -99 -68s-50.333 -62.667 -66 -101s-23.5 -79.833 -23.5 -124.5s7.83301 -86.167 23.5 -124.5
s37.5 -72 65.5 -101s60.833 -51.667 98.5 -68s78.834 -24.5 123.501 -24.5c54 0 102.167 12.167 144.5 36.5s76.333 57.666 102 99.999s39.834 89.833 42.501 142.5h-269v43h314v-25c0 -47.333 -8.5 -91.5 -25.5 -132.5s-40.667 -77 -71 -108s-65.666 -55.333 -105.999 -73
s-84.166 -26.5 -131.499 -26.5z" />
    <glyph glyph-name="H" unicode="H" horiz-adv-x="704" 
d="M83 0v700h46v-326h446v326h46v-700h-46v331h-446v-331h-46z" />
    <glyph glyph-name="I" unicode="I" horiz-adv-x="212" 
d="M83 0v700h46v-700h-46z" />
    <glyph glyph-name="J" unicode="J" horiz-adv-x="581" 
d="M259 -11c-56.667 0 -105.832 14.167 -147.499 42.5s-73.5 69.833 -95.5 124.5l42 19c19.333 -46 46 -81.333 80 -106s74.667 -37 122 -37c63.333 0 113.666 20.5 150.999 61.5s56 96.5 56 166.5v440h46v-440c0 -56 -10.333 -104.167 -31 -144.5s-50 -71.5 -88 -93.5
s-83 -33 -135 -33z" />
    <glyph glyph-name="K" unicode="K" horiz-adv-x="580" 
d="M83 0v700h46v-341l388 341h65l-399 -349l405 -351h-70l-389 339v-339h-46z" />
    <glyph glyph-name="L" unicode="L" horiz-adv-x="593" 
d="M83 0v700h46v-657h432v-43h-478z" />
    <glyph glyph-name="M" unicode="M" horiz-adv-x="831" 
d="M83 0v700h72l261 -551l260 551h72v-700h-46v656l-286 -606l-287 604v-654h-46z" />
    <glyph glyph-name="N" unicode="N" horiz-adv-x="714" 
d="M83 0v700h50l452 -619v619h46v-700h-40l-462 632v-632h-46z" />
    <glyph glyph-name="O" unicode="O" horiz-adv-x="808" 
d="M404 -11c-49.333 0 -95.5 9.16699 -138.5 27.5s-80.833 44 -113.5 77s-58.167 71.333 -76.5 115s-27.5 90.834 -27.5 141.501s9.16699 97.834 27.5 141.501s43.833 82 76.5 115s70.5 58.667 113.5 77s89.167 27.5 138.5 27.5s95.5 -9.16699 138.5 -27.5
s80.833 -44 113.5 -77s58.167 -71.333 76.5 -115s27.5 -90.834 27.5 -141.501s-9.16699 -97.834 -27.5 -141.501s-43.833 -82 -76.5 -115s-70.5 -58.667 -113.5 -77s-89.167 -27.5 -138.5 -27.5zM404 32c43.333 0 83.833 8.16699 121.5 24.5s70.5 38.833 98.5 67.5
s49.833 62.334 65.5 101.001s23.5 80.334 23.5 125.001s-7.83301 86.334 -23.5 125.001s-37.5 72.334 -65.5 101.001s-60.833 51.167 -98.5 67.5s-78.167 24.5 -121.5 24.5s-83.833 -8.16699 -121.5 -24.5s-70.5 -38.833 -98.5 -67.5s-49.833 -62.334 -65.5 -101.001
s-23.5 -80.334 -23.5 -125.001s7.83301 -86.334 23.5 -125.001s37.5 -72.334 65.5 -101.001s60.833 -51.167 98.5 -67.5s78.167 -24.5 121.5 -24.5z" />
    <glyph glyph-name="P" unicode="P" horiz-adv-x="631" 
d="M83 0v700h283c46 0 85.667 -8 119 -24s58.833 -38.5 76.5 -67.5s26.5 -63.167 26.5 -102.5s-8.83301 -73.833 -26.5 -103.5s-43.167 -52.667 -76.5 -69s-73 -24.5 -119 -24.5h-237v-309h-46zM129 352h235c57.333 0 101.166 14 131.499 42s45.5 65.333 45.5 112
c0 45.333 -15.167 81.833 -45.5 109.5s-74.166 41.5 -131.499 41.5h-235v-305z" />
    <glyph glyph-name="Q" unicode="Q" horiz-adv-x="808" 
d="M667 -15l-58.999 67.998c-28.667 -20.667 -60.334 -36.5 -95.001 -47.5s-71 -16.5 -109 -16.5c-49.333 0 -95.5 9.16699 -138.5 27.5s-80.833 44 -113.5 77s-58.167 71.333 -76.5 115s-27.5 90.834 -27.5 141.501s9.16699 97.834 27.5 141.501s43.833 82 76.5 115
s70.5 58.667 113.5 77s89.167 27.5 138.5 27.5s95.5 -9.16699 138.5 -27.5s80.833 -44 113.5 -77s58.167 -71.333 76.5 -115s27.5 -90.834 27.5 -141.501c0 -54.667 -10.667 -105.167 -32 -151.5s-50.333 -86.166 -87 -119.499l76 -86zM404.001 31.998
c33.333 0 64.667 4.83398 94 14.501s56.333 22.834 81 39.501l-110 127l50 8l93 -108c31.333 29.333 56 64.333 74 105s27 84.667 27 132c0 44.667 -7.83301 86.334 -23.5 125.001s-37.5 72.334 -65.5 101.001s-60.833 51.167 -98.5 67.5s-78.167 24.5 -121.5 24.5
s-83.833 -8.16699 -121.5 -24.5s-70.5 -38.833 -98.5 -67.5s-49.833 -62.334 -65.5 -101.001s-23.5 -80.334 -23.5 -125.001s7.83301 -86.334 23.5 -125.001s37.5 -72.334 65.5 -101.001s60.833 -51.167 98.5 -67.5s78.167 -24.5 121.5 -24.5z" />
    <glyph glyph-name="R" unicode="R" horiz-adv-x="629" 
d="M83 0v700h282c47.333 0 87.5 -8.5 120.5 -25.5s58 -40 75 -69s25.5 -62.167 25.5 -99.5c0 -45.333 -13 -85 -39 -119s-63.667 -56.667 -113 -68l155 -319h-50l-151 312h-259v-312h-46zM129 355h233c57.333 0 101.166 14.5 131.499 43.5s45.5 64.833 45.5 107.5
c0 43.333 -15.167 79.333 -45.5 108s-74.166 43 -131.499 43h-233v-302z" />
    <glyph glyph-name="S" unicode="S" horiz-adv-x="586" 
d="M300 -11c-56 0 -108.331 11.498 -156.998 34.498s-91.334 56.167 -128.001 99.5l36 30c33.333 -39.333 71.166 -69.333 113.499 -90s87.5 -31 135.5 -31c40 0 75.667 7 107 21s56 33.167 74 57.5s27 51.833 27 82.5c0 40.667 -13.833 71.834 -41.5 93.501
s-74.167 37.834 -139.5 48.501l-85 14c-70 11.333 -121.333 31 -154 59s-49 66.333 -49 115c0 37.333 9.83301 70 29.5 98s47.167 50 82.5 66s75.666 24 120.999 24c46 0 92 -7.83301 138 -23.5s89.667 -38.834 131 -69.501l-28 -38c-78.667 58.667 -159 88 -241 88
c-36 0 -68 -6 -96 -18s-50 -28.833 -66 -50.5s-24 -46.5 -24 -74.5c0 -36.667 12.333 -65.167 37 -85.5s66 -35.166 124 -44.499l85 -14c79.333 -12.667 136.333 -33.834 171 -63.501s52 -72.167 52 -127.5c0 -38.667 -11 -73.167 -33 -103.5s-52.167 -54.166 -90.5 -71.499
s-82.166 -26 -131.499 -26z" />
    <glyph glyph-name="T" unicode="T" 
d="M277 0v657h-260v43h566v-43h-260v-657h-46z" />
    <glyph glyph-name="U" unicode="U" horiz-adv-x="694" 
d="M347 -11c-55.333 0 -104 11.833 -146 35.5s-74.667 58.167 -98 103.5s-35 100.333 -35 165v407h46v-407c0 -55.333 10 -102.5 30 -141.5s47.5 -68.667 82.5 -89s75.167 -30.5 120.5 -30.5s85.5 10.167 120.5 30.5s62.5 50 82.5 89s30 86.167 30 141.5v407h46v-407
c0 -64.667 -11.667 -119.667 -35 -165s-56 -79.833 -98 -103.5s-90.667 -35.5 -146 -35.5z" />
    <glyph glyph-name="V" unicode="V" horiz-adv-x="655" 
d="M299 0l-294 700h50l273 -657l274 657h48l-294 -700h-57z" />
    <glyph glyph-name="W" unicode="W" horiz-adv-x="884" 
d="M213 0l-186 700h46l164 -624l184 624h46l181 -627l165 627h44l-187 -700h-44l-183 633l-186 -633h-44z" />
    <glyph glyph-name="X" unicode="X" horiz-adv-x="610" 
d="M6 0l272 363l-252 337h57l223 -300l223 300h55l-251 -335l271 -365h-57l-242 328l-244 -328h-55z" />
    <glyph glyph-name="Y" unicode="Y" horiz-adv-x="609" 
d="M281 0v292l-274 408h55l243 -366l244 366h53l-275 -410v-290h-46z" />
    <glyph glyph-name="Z" unicode="Z" horiz-adv-x="598" 
d="M25 0v35l472 622h-468v43h529v-35l-472 -622h482v-43h-543z" />
    <glyph glyph-name="bracketleft" unicode="[" horiz-adv-x="326" 
d="M57 -215v915h231v-39h-186v-837h186v-39h-231z" />
    <glyph glyph-name="backslash" unicode="\" horiz-adv-x="437" 
d="M454 -204l-420 904h48l420 -904h-48z" />
    <glyph glyph-name="bracketright" unicode="]" horiz-adv-x="326" 
d="M269 700v-915h-231v39h186v837h-186v39h231z" />
    <glyph glyph-name="asciicircum" unicode="^" 
d="M101 350l178 350h42l178 -350h-47l-152 298l-152 -298h-47z" />
    <glyph glyph-name="underscore" unicode="_" horiz-adv-x="476" 
d="M-1 -124v44h478v-44h-478z" />
    <glyph glyph-name="grave" unicode="`" 
d="M281 596l-118 110h68l94 -110h-44z" />
    <glyph glyph-name="a" unicode="a" horiz-adv-x="494" 
d="M216 -10c-36 0 -67.667 6.16992 -95 18.5029s-48.666 29.666 -63.999 51.999s-23 48.166 -23 77.499c0 45.333 17.667 81.833 53 109.5s82.333 41.5 141 41.5s110.667 -14.333 156 -43v82c0 45.333 -12.333 79.166 -37 101.499s-60 33.5 -106 33.5
c-22.667 0 -46.334 -3.66699 -71.001 -11s-53 -19.333 -85 -36l-19 39c31.333 16 61.333 27.833 90 35.5s57.334 11.5 86.001 11.5c59.333 0 105.166 -14.167 137.499 -42.5s48.5 -69.5 48.5 -123.5v-336h-44v55c-22.667 -20.667 -48 -36.667 -76 -48s-58.667 -17 -92 -17z
M78 139.003c0 -32 13.332 -58.333 39.999 -79s60.334 -31 101.001 -31c35.333 0 66.333 6.16699 93 18.5s50.667 29.833 72 52.5v102c-22 16.667 -46 29 -72 37s-55.667 12 -89 12c-43.333 0 -78.333 -10.333 -105 -31s-40 -47.667 -40 -81z" />
    <glyph glyph-name="b" unicode="b" horiz-adv-x="571" 
d="M68 0v700l44 11v-278c44.667 46 101 69 169 69c46 0.666992 87.5 -10.5 124.5 -33.5s66.333 -53.833 88 -92.5s32.5 -82 32.5 -130c0 -47.333 -10.833 -90.5 -32.5 -129.5s-51 -69.833 -88 -92.5s-78.5 -34 -124.5 -34c-31.333 0 -61.5 6.16699 -90.5 18.5
s-55.167 28.833 -78.5 49.5v-58h-44zM281 32c37.333 0 71.168 9.5 101.501 28.5s54.333 44.667 72 77s26.5 68.5 26.5 108.5s-8.83301 76.167 -26.5 108.5s-41.667 58 -72 77s-64.166 28.5 -101.499 28.5c-36.667 0 -69.834 -7.5 -99.501 -22.5
s-52.834 -34.833 -69.501 -59.5v-264c17.333 -23.333 41 -42.833 71 -58.5s62.667 -23.5 98 -23.5z" />
    <glyph glyph-name="c" unicode="c" horiz-adv-x="504" 
d="M290 -10c-45.333 0 -86.666 11.3291 -123.999 33.9961s-66.833 53.334 -88.5 92.001s-32.5 82 -32.5 130s10.833 91.333 32.5 130s51.167 69.334 88.5 92.001s78.666 34 123.999 34c33.333 0 66.833 -6.66699 100.5 -20s63.167 -31.666 88.5 -54.999l-30 -36
c-21.333 21.333 -45.833 38.166 -73.5 50.499s-56.167 18.5 -85.5 18.5c-37.333 0 -71.166 -9.5 -101.499 -28.5s-54.333 -44.667 -72 -77s-26.5 -68.5 -26.5 -108.5s8.83301 -76.167 26.5 -108.5s41.667 -58 72 -77s64.166 -28.5 101.499 -28.5
c29.333 0 57.833 6.33301 85.5 19s52.167 29.334 73.5 50.001l30 -36c-25.333 -23.333 -54.833 -41.666 -88.5 -54.999s-67.167 -20 -100.5 -20z" />
    <glyph glyph-name="d" unicode="d" horiz-adv-x="571" 
d="M290 -10c-45.333 0 -86.665 11.3311 -123.998 33.998s-66.833 53.334 -88.5 92.001s-32.5 82 -32.5 130s10.833 91.333 32.5 130s51.167 69.334 88.5 92.001s78.666 34 123.999 34c31.333 0 61.666 -6.16699 90.999 -18.5s55.333 -28.833 78 -49.5v266l44 11v-711h-44v59
c-44.667 -46 -101 -69 -169 -69zM290.001 31.998c36.667 0 69.832 7.5 99.499 22.5s52.834 34.833 69.501 59.5v264c-17.333 23.333 -41 42.833 -71 58.5s-62.667 23.5 -98 23.5c-37.333 0 -71.166 -9.5 -101.499 -28.5s-54.333 -44.667 -72 -77s-26.5 -68.5 -26.5 -108.5
s8.83301 -76.167 26.5 -108.5s41.667 -58 72 -77s64.166 -28.5 101.499 -28.5z" />
    <glyph glyph-name="e" unicode="e" horiz-adv-x="549" 
d="M290 -10c-45.333 0 -86.666 11.3311 -123.999 33.998s-66.833 53.334 -88.5 92.001s-32.5 82 -32.5 130s10.5 91.333 31.5 130s49.833 69.334 86.5 92.001s77.667 34 123 34c42.667 0 80.667 -11.333 114 -34s59.833 -52.834 79.5 -90.501s29.5 -79.5 29.5 -125.5v-18
h-419c2 -38 12 -72.167 30 -102.5s41.833 -54.5 71.5 -72.5s62.5 -27 98.5 -27c28 0 55.667 4.5 83 13.5s50.666 21.167 69.999 36.5l26 -35c-26.667 -19.333 -55 -33.666 -85 -42.999s-61.333 -14 -94 -14zM92 275.998l370.001 -0.000976562
c-3.33301 34 -13 64.833 -29 92.5s-36.667 49.834 -62 66.501s-54 25 -86 25c-34 0 -64.833 -8 -92.5 -24s-50.334 -37.833 -68.001 -65.5s-28.5 -59.167 -32.5 -94.5z" />
    <glyph glyph-name="f" unicode="f" horiz-adv-x="348" 
d="M135 0v451.999h-118v40h118v109c0 44.667 11.667 79 35 103s57 36 101 36c12.667 0 23.5 -0.666992 32.5 -2s18.167 -3.66602 27.5 -6.99902v-43c-11.333 3.33301 -21.5 5.83301 -30.5 7.5s-19.167 2.5 -30.5 2.5c-30.667 0 -53.5 -7.66699 -68.5 -23
s-22.5 -40.333 -22.5 -75v-108h152v-40h-152v-452h-44z" />
    <glyph glyph-name="g" unicode="g" horiz-adv-x="571" 
d="M305 -214c-32.667 0 -64.999 4.66406 -96.999 13.9971s-61.333 22.333 -88 39l25 36c29.333 -16.667 56.166 -28.667 80.499 -36s49.833 -11 76.5 -11c51.333 0 90.333 12.333 117 37s40 61.334 40 110.001v84c-44.667 -46 -101 -69 -169 -69
c-45.333 0 -86.666 11.333 -123.999 34s-66.833 53.334 -88.5 92.001s-32.5 82 -32.5 130s10.833 91.333 32.5 130s51.167 69.334 88.5 92.001s78.666 34 123.999 34c31.333 0 61.666 -6.16699 90.999 -18.5s55.333 -28.833 78 -49.5v58h44v-515
c0 -62.667 -17.167 -110.167 -51.5 -142.5s-83.166 -48.5 -146.499 -48.5zM290.001 31.9971c36.667 0 69.832 7.5 99.499 22.5s52.834 34.833 69.501 59.5v264c-17.333 23.333 -41 42.833 -71 58.5s-62.667 23.5 -98 23.5c-37.333 0 -71.166 -9.5 -101.499 -28.5
s-54.333 -44.667 -72 -77s-26.5 -68.5 -26.5 -108.5s8.83301 -76.167 26.5 -108.5s41.667 -58 72 -77s64.166 -28.5 101.499 -28.5z" />
    <glyph glyph-name="h" unicode="h" horiz-adv-x="529" 
d="M68 0l0.000976562 700l44 11v-288c40 52.667 94.333 79 163 79c37.333 0 70.166 -7.83301 98.499 -23.5s50.333 -37.667 66 -66s23.5 -61.166 23.5 -98.499v-314h-44v302c0 49.333 -13.667 88.166 -41 116.499s-65 42.5 -113 42.5c-33.333 0 -63.333 -7.83301 -90 -23.5
s-47.667 -38.167 -63 -67.5v-370h-44z" />
    <glyph glyph-name="i" unicode="i" horiz-adv-x="180" 
d="M68 0v492h44v-492h-44zM90 603c-10.667 0 -19.667 3.66699 -27 11s-11 16.333 -11 27s3.66699 19.667 11 27s16.333 11 27 11c11.333 0 20.5 -3.66699 27.5 -11s10.5 -16.333 10.5 -27s-3.5 -19.667 -10.5 -27s-16.167 -11 -27.5 -11z" />
    <glyph glyph-name="j" unicode="j" horiz-adv-x="180" 
d="M90 604c-10.667 0 -19.5 3.66699 -26.5 11s-10.5 16 -10.5 26s3.5 18.667 10.5 26s15.833 11 26.5 11s19.5 -3.66699 26.5 -11s10.5 -16 10.5 -26s-3.5 -18.667 -10.5 -26s-15.833 -11 -26.5 -11zM2 -214c-6.66699 0 -12.5 0.332031 -17.5 0.999023
s-10.833 1.33398 -17.5 2.00098v44c10.667 -2.66699 22 -4 34 -4c24 0 41.167 5.66699 51.5 17s15.5 30.333 15.5 57v589h44v-594c0 -35.333 -9.33301 -62.833 -28 -82.5s-46 -29.5 -82 -29.5z" />
    <glyph glyph-name="k" unicode="k" horiz-adv-x="461" 
d="M68 0v700l44 11v-448l278 229h62l-290 -238l302 -254h-67l-285 242v-242h-44z" />
    <glyph glyph-name="l" unicode="l" horiz-adv-x="180" 
d="M68 0v700l44 11v-711h-44z" />
    <glyph glyph-name="m" unicode="m" horiz-adv-x="838" 
d="M68 0l0.00195312 492h44v-64c38 49.333 88.667 74 152 74c35.333 0 67 -8.83301 95 -26.5s49.333 -41.5 64 -71.5c20.667 32 45.167 56.333 73.5 73s60.833 25 97.5 25c35.333 0 66.333 -7.83301 93 -23.5s47.5 -37.667 62.5 -66s22.5 -61.166 22.5 -98.499v-314h-44v302
c0 49.333 -12.667 88.166 -38 116.499s-60.666 42.5 -105.999 42.5c-32.667 0 -61.334 -8.5 -86.001 -25.5s-45.334 -40.167 -62.001 -69.5c2 -8.66699 3.5 -17.167 4.5 -25.5s1.5 -17.166 1.5 -26.499v-314h-44v302c0 49.333 -12.667 88.166 -38 116.499
s-60.666 42.5 -105.999 42.5c-30.667 0 -57.834 -7.5 -81.501 -22.5s-43.834 -36.167 -60.501 -63.5v-375h-44z" />
    <glyph glyph-name="n" unicode="n" horiz-adv-x="529" 
d="M68 0l0.000976562 492h44v-69c40 52.667 94.333 79 163 79c37.333 0 70.166 -7.83301 98.499 -23.5s50.333 -37.667 66 -66s23.5 -61.166 23.5 -98.499v-314h-44v302c0 49.333 -13.667 88.166 -41 116.499s-65 42.5 -113 42.5c-33.333 0 -63.333 -7.83301 -90 -23.5
s-47.667 -38.167 -63 -67.5v-370h-44z" />
    <glyph glyph-name="o" unicode="o" horiz-adv-x="580" 
d="M290 -10c-45.333 0 -86.666 11.333 -123.999 34s-66.833 53.5 -88.5 92.5s-32.5 82.167 -32.5 129.5c0 48 10.833 91.333 32.5 130s51.167 69.334 88.5 92.001s78.666 34 123.999 34c46 0 87.5 -11.333 124.5 -34s66.333 -53.334 88 -92.001s32.5 -82 32.5 -130
c0 -47.333 -10.833 -90.5 -32.5 -129.5s-51 -69.833 -88 -92.5s-78.5 -34 -124.5 -34zM290 32c37.333 0 71.166 9.5 101.499 28.5s54.333 44.667 72 77s26.5 68.5 26.5 108.5s-8.83301 76.167 -26.5 108.5s-41.667 58 -72 77s-64.166 28.5 -101.499 28.5
s-71.166 -9.5 -101.499 -28.5s-54.333 -44.667 -72 -77s-26.5 -68.5 -26.5 -108.5s8.83301 -76.167 26.5 -108.5s41.667 -58 72 -77s64.166 -28.5 101.499 -28.5z" />
    <glyph glyph-name="p" unicode="p" horiz-adv-x="571" 
d="M68 -204v696h44v-59c44.667 46 101 69 169 69c46 0.666992 87.5 -10.5 124.5 -33.5s66.333 -53.833 88 -92.5s32.5 -82 32.5 -130c0 -47.333 -10.833 -90.5 -32.5 -129.5s-51 -69.833 -88 -92.5s-78.5 -34 -124.5 -34c-31.333 0 -61.5 6.16699 -90.5 18.5
s-55.167 28.833 -78.5 49.5v-262h-44zM281 32c37.333 0 71.168 9.5 101.501 28.5s54.333 44.667 72 77s26.5 68.5 26.5 108.5s-8.83301 76.167 -26.5 108.5s-41.667 58 -72 77s-64.166 28.5 -101.499 28.5c-36.667 0 -69.834 -7.5 -99.501 -22.5
s-52.834 -34.833 -69.501 -59.5v-264c17.333 -23.333 41 -42.833 71 -58.5s62.667 -23.5 98 -23.5z" />
    <glyph glyph-name="q" unicode="q" horiz-adv-x="571" 
d="M459 -204l0.000976562 262.998c-44.667 -46 -101 -69 -169 -69c-45.333 0 -86.666 11.333 -123.999 34s-66.833 53.334 -88.5 92.001s-32.5 82 -32.5 130s10.833 91.333 32.5 130s51.167 69.334 88.5 92.001s78.666 34 123.999 34c31.333 0 61.666 -6.16699 90.999 -18.5
s55.333 -28.833 78 -49.5v58h44v-696h-44zM290.001 31.998c36.667 0 69.832 7.5 99.499 22.5s52.834 34.833 69.501 59.5v264c-17.333 23.333 -41 42.833 -71 58.5s-62.667 23.5 -98 23.5c-37.333 0 -71.166 -9.5 -101.499 -28.5s-54.333 -44.667 -72 -77
s-26.5 -68.5 -26.5 -108.5s8.83301 -76.167 26.5 -108.5s41.667 -58 72 -77s64.166 -28.5 101.499 -28.5z" />
    <glyph glyph-name="r" unicode="r" horiz-adv-x="318" 
d="M69 1l0.000976562 492h44v-78c14 27.333 33.167 48.833 57.5 64.5s51.833 23.5 82.5 23.5c13.333 0 27.666 -1.33301 42.999 -4v-45c-7.33301 2.66699 -14.666 4.5 -21.999 5.5s-14.333 1.5 -21 1.5c-32.667 0 -60.834 -9.83301 -84.501 -29.5
s-42.167 -48.167 -55.5 -85.5v-345h-44z" />
    <glyph glyph-name="s" unicode="s" horiz-adv-x="423" 
d="M208 -10c-38 0 -74.166 6.83398 -108.499 20.501s-63.166 33.5 -86.499 59.5l34 28c20 -20.667 44.167 -37 72.5 -49s57.833 -18 88.5 -18c45.333 0 81.833 9.83301 109.5 29.5s41.5 45.167 41.5 76.5c0 23.333 -8.33301 42.666 -25 57.999s-43.667 25.333 -81 30l-81 10
c-46.667 5.33301 -82.167 19 -106.5 41s-36.5 51.333 -36.5 88c0 27.333 7.33301 51.333 22 72s35.167 36.834 61.5 48.501s56.833 17.5 91.5 17.5c33.333 0 65.333 -5 96 -15s61.667 -26.333 93 -49l-26 -36c-28 20 -54.833 34.833 -80.5 44.5s-52.834 14.5 -81.501 14.5
c-38.667 0 -70.334 -8.16699 -95.001 -24.5s-37 -40.5 -37 -72.5c0 -24 8.16699 -43.333 24.5 -58s42.833 -24.334 79.5 -29.001l80 -10c49.333 -6 86 -20.333 110 -43s36 -51.667 36 -87c0 -28 -8.33301 -53.167 -25 -75.5s-39.5 -39.833 -68.5 -52.5
s-62.833 -19 -101.5 -19z" />
    <glyph glyph-name="t" unicode="t" horiz-adv-x="338" 
d="M241 -10c-37.333 0 -66 9.33301 -86 28s-30 44.667 -30 78v356h-108v40h108v124l44 14v-138h152v-40h-152v-341c0 -28 6.16699 -48.167 18.5 -60.5s32.833 -18.5 61.5 -18.5c15.333 0 28.333 1.16699 39 3.5s21.667 5.83301 33 10.5v-43
c-12.667 -4.66699 -25.667 -8 -39 -10s-27 -3 -41 -3z" />
    <glyph glyph-name="u" unicode="u" horiz-adv-x="529" 
d="M254 -10c-36.667 0 -69.167 7.83496 -97.5 23.502s-50.5 37.667 -66.5 66s-24 61.166 -24 98.499v314h44v-302c0 -48.667 13.667 -87.334 41 -116.001s65 -43 113 -43c33.333 0 63.333 8 90 24s47.667 38.333 63 67v370h44v-492h-44v68c-38.667 -52 -93 -78 -163 -78z
" />
    <glyph glyph-name="v" unicode="v" horiz-adv-x="483" 
d="M222 0l-215 492h48l188 -436l187 436h46l-214 -492h-40z" />
    <glyph glyph-name="w" unicode="w" horiz-adv-x="671" 
d="M166 0l-150 492h46l128 -426l125 426h44l124 -427l128 427h44l-150 -492h-44l-125 431l-126 -431h-44z" />
    <glyph glyph-name="x" unicode="x" horiz-adv-x="460" 
d="M8 0l194 254l-183 238h56l155 -203l154 203h54l-182 -236l196 -256h-56l-167 221l-167 -221h-54z" />
    <glyph glyph-name="y" unicode="y" horiz-adv-x="479" 
d="M75 -212c-7.33301 0 -14.667 0.500977 -22 1.50098l-19 2.5v44c10.667 -2.66699 23.667 -4 39 -4c42 0 75 26.667 99 80l40 90l-205 490h50l179 -437l187 437h49l-256 -584c-12.667 -28.667 -25.834 -51.834 -39.501 -69.501s-28.667 -30.5 -45 -38.5
s-35.166 -12 -56.499 -12z" />
    <glyph glyph-name="z" unicode="z" horiz-adv-x="449" 
d="M36 0v39l315 411h-312v42h368v-39l-315 -411h317v-42h-373z" />
    <glyph glyph-name="braceleft" unicode="{" horiz-adv-x="360" 
d="M246 -219c-32.667 0 -59.167 8.5 -79.5 25.5s-32.833 39.833 -37.5 68.5s-0.333984 60.667 12.999 96l46 118c14.667 36.667 15.5 68.5 2.5 95.5s-39.5 40.5 -79.5 40.5h-78v42h78c40 0 66.5 13.5 79.5 40.5s12.167 58.833 -2.5 95.5l-46 118
c-13.333 35.333 -17.666 67.333 -12.999 96s17.167 51.5 37.5 68.5s46.833 25.5 79.5 25.5c12.667 0 24.667 -1.16699 36 -3.5s24.333 -6.16602 39 -11.499l-13 -37c-12.667 5.33301 -23.834 8.66602 -33.501 9.99902s-19.167 2 -28.5 2
c-34.667 0 -58.167 -12.667 -70.5 -38s-10.833 -58 4.5 -98l46 -118c15.333 -38.667 17 -74 5 -106s-34.333 -53.667 -67 -65c32.667 -11.333 55 -32.833 67 -64.5s10.333 -67.167 -5 -106.5l-46 -118c-15.333 -40 -16.833 -72.667 -4.5 -98s35.833 -38 70.5 -38
c9.33301 0 18.833 0.833008 28.5 2.5s20.834 4.83398 33.501 9.50098l13 -37c-14.667 -4.66699 -27.667 -8.33398 -39 -11.001s-23.333 -4 -36 -4z" />
    <glyph glyph-name="bar" unicode="|" horiz-adv-x="251" 
d="M104 -204v904h42v-904h-42z" />
    <glyph glyph-name="braceright" unicode="}" horiz-adv-x="360" 
d="M114 705c32.667 0 59.167 -8.5 79.5 -25.5s32.833 -39.833 37.5 -68.5s0.333984 -60.667 -12.999 -96l-46 -118c-14.667 -36.667 -15.5 -68.5 -2.5 -95.5s39.5 -40.5 79.5 -40.5h78v-42h-78c-40 0 -66.5 -13.5 -79.5 -40.5s-12.167 -58.833 2.5 -95.5l46 -118
c13.333 -35.333 17.666 -67.333 12.999 -96s-17.167 -51.5 -37.5 -68.5s-46.833 -25.5 -79.5 -25.5c-12.667 0 -24.667 1.16699 -36 3.5s-24.333 6.16602 -39 11.499l13 37c12.667 -5.33301 23.834 -8.66602 33.501 -9.99902s19.167 -2 28.5 -2
c34.667 0 58.167 12.667 70.5 38s10.833 58 -4.5 98l-46 118c-15.333 38.667 -17 74 -5 106s34.333 53.667 67 65c-32.667 11.333 -55 32.833 -67 64.5s-10.333 67.167 5 106.5l46 118c15.333 40 16.833 72.667 4.5 98s-35.833 38 -70.5 38
c-9.33301 0 -18.833 -0.833008 -28.5 -2.5s-20.834 -4.83398 -33.501 -9.50098l-13 37c14.667 4.66699 27.667 8.33398 39 11.001s23.333 4 36 4z" />
    <glyph glyph-name="asciitilde" unicode="~" 
d="M112 308l-37.9961 5.00098c5.33301 43.333 18 76.666 38 99.999s45.333 35 76 35c12 0 24.5 -2.16699 37.5 -6.5s29.5 -12.166 49.5 -23.499l73 -39c15.333 -8.66699 27.833 -14.667 37.5 -18s19.167 -5 28.5 -5c41.333 0 66.333 32 75 96l37 -6
c-4.66699 -42.667 -16.834 -75.667 -36.501 -99s-44.834 -35 -75.501 -35c-12.667 0 -25.834 2.33301 -39.501 7s-29.834 12 -48.501 22l-73 39c-17.333 9.33301 -30.5 15.666 -39.5 18.999s-17.833 5 -26.5 5c-41.333 0 -66.333 -32 -75 -96z" />
    <glyph glyph-name="uni00A0" unicode="&#xa0;" horiz-adv-x="221" 
 />
    <glyph glyph-name="exclamdown" unicode="&#xa1;" horiz-adv-x="178" 
d="M108 310l5 -518h-48l5 518h38zM89 502c10 0 18.667 -3.66699 26 -11s11 -16.333 11 -27c0 -10 -3.66699 -18.667 -11 -26s-16 -11 -26 -11c-10.667 0 -19.5 3.66699 -26.5 11s-10.5 16 -10.5 26c0 10.667 3.5 19.667 10.5 27s15.833 11 26.5 11z" />
    <glyph glyph-name="cent" unicode="&#xa2;" horiz-adv-x="508" 
d="M261 -116v108c-40.667 4.66699 -77.334 18.667 -110.001 42s-58.5 53.333 -77.5 90s-28.5 77.334 -28.5 122.001s9.5 85.334 28.5 122.001s44.833 66.667 77.5 90s69.334 37.333 110.001 42v108h42v-106c31.333 -2 62.5 -9.5 93.5 -22.5s58.5 -30.5 82.5 -52.5l-30 -36
c-20 19.333 -42.5 35.166 -67.5 47.499s-51.167 19.5 -78.5 21.5v-428c27.333 2 53.5 9.16699 78.5 21.5s47.5 28.166 67.5 47.499l30 -36c-24 -22 -51.5 -39.5 -82.5 -52.5s-62.167 -20.5 -93.5 -22.5v-106h-42zM90 246c0 -36 7.5 -69.167 22.5 -99.5
s35.333 -55.333 61 -75s54.834 -32.167 87.501 -37.5v424c-32.667 -4.66699 -61.834 -17 -87.501 -37s-46 -45 -61 -75s-22.5 -63.333 -22.5 -100z" />
    <glyph glyph-name="sterling" unicode="&#xa3;" 
d="M433 -25c-10 0 -20.334 0.65918 -31.001 1.99219s-21.667 3.33301 -33 6l-178 41c-10.667 2.66699 -20.667 4.66699 -30 6s-18.333 2 -27 2c-19.333 0 -36.166 -4.16699 -50.499 -12.5s-26.833 -23.166 -37.5 -44.499l-31 22c16.667 29.333 36 49.833 58 61.5
s47 16.834 75 15.501c23.333 14 35 38.667 35 74c0 2.66699 -0.166992 6 -0.5 10s-1.33301 11.333 -3 22s-4.33398 26.5 -8.00098 47.5l-14.5 86.5h-104v41h97c-5.33301 30.667 -9.33301 54.834 -12 72.501s-4.33398 31.834 -5.00098 42.501s-1 20 -1 28
c0 44.667 7.33301 82.834 22 114.501s36.334 56 65.001 73s63.667 25.5 105 25.5c54 0 98.333 -14.833 133 -44.5s57.667 -72.167 69 -127.5l-42 -12c-8.66699 45.333 -27.167 80.333 -55.5 105s-63.166 37 -104.499 37c-48 0 -84.667 -15.5 -110 -46.5
s-38 -72.833 -38 -125.5c0 -6.66699 0.333008 -14.5 1 -23.5s2.5 -22.5 5.5 -40.5l12.5 -78h208v-41h-201c6 -34.667 10.5 -62.167 13.5 -82.5s5.33301 -35.666 7 -45.999s2.66699 -17.666 3 -21.999s0.5 -8.16602 0.5 -11.499c0 -38 -10.333 -66.333 -31 -85l184 -42
c10 -2.66699 19.667 -4.5 29 -5.5s18.333 -1.5 27 -1.5c52.667 0 92 23.667 118 71l35 -22c-35.333 -61.333 -87 -92 -155 -92z" />
    <glyph glyph-name="uni00A4" unicode="&#xa4;" horiz-adv-x="632" 
d="M58 71l-28 28l94 95c-18 22.667 -32 48.167 -42 76.5s-15 58.166 -15 89.499s5 61.166 15 89.499s24 53.833 42 76.5l-94 95l28 28l93 -94c21.333 19.333 46 34.666 74 45.999s58.333 17 91 17s63 -5.66699 91 -17s52.667 -26.666 74 -45.999l93 94l28 -28l-94 -95
c18 -22.667 32 -48.167 42 -76.5s15 -58.166 15 -89.499s-5 -61.166 -15 -89.499s-24 -53.833 -42 -76.5l94 -95l-28 -28l-93 94c-21.333 -19.333 -46 -34.666 -74 -45.999s-58.333 -17 -91 -17s-63 5.66699 -91 17s-52.667 26.666 -74 45.999zM316 142
c39.333 0 74.5 9.66699 105.5 29s55.667 45.5 74 78.5s27.5 69.833 27.5 110.5s-9.16699 77.5 -27.5 110.5s-43 59.167 -74 78.5s-66.167 29 -105.5 29c-38.667 0 -73.667 -9.66699 -105 -29s-56.166 -45.5 -74.499 -78.5s-27.5 -69.833 -27.5 -110.5
s9.16699 -77.5 27.5 -110.5s43.166 -59.167 74.499 -78.5s66.333 -29 105 -29z" />
    <glyph glyph-name="yen" unicode="&#xa5;" horiz-adv-x="643" 
d="M298 0v142h-192v41h192v86h-192v41h180l-262 390h55l243 -366l244 366h53l-262 -390h179v-41h-192v-86h192v-41h-192v-142h-46z" />
    <glyph glyph-name="uni00A6" unicode="&#xa6;" horiz-adv-x="250" 
d="M104 291v409h42v-409h-42zM104 -204v409h42v-409h-42z" />
    <glyph glyph-name="section" unicode="&#xa7;" horiz-adv-x="560" 
d="M281 -49c-24.667 0 -51.667 3.83008 -81 11.4971s-58.666 18.834 -87.999 33.501l20 40c54 -28.667 103.667 -43 149 -43c36.667 0 65.334 7.83301 86.001 23.5s31 36.834 31 63.501c0 22 -6.83301 40.5 -20.5 55.5s-35.167 27.167 -64.5 36.5l-112 36
c-46.667 15.333 -80.5 34.166 -101.5 56.499s-31.5 50.833 -31.5 85.5c0 30.667 9.83301 56.834 29.5 78.501s46.167 36.834 79.5 45.501c-39.333 26 -59 62 -59 108c0 39.333 14.667 70.666 44 93.999s68.333 35 117 35c25.333 0 52.666 -3.66699 81.999 -11
s58.333 -18.666 87 -33.999l-20 -40c-54 28.667 -103.667 43 -149 43c-36.667 0 -65.334 -7.83301 -86.001 -23.5s-31 -36.834 -31 -63.501c0 -22 7 -40.5 21 -55.5s35.333 -27.167 64 -36.5l112 -36c46.667 -15.333 80.5 -34.166 101.5 -56.499s31.5 -50.833 31.5 -85.5
c0 -30.667 -9.83301 -56.667 -29.5 -78s-46.167 -36.666 -79.5 -45.999c39.333 -26 59 -62 59 -108c0 -38.667 -14.667 -69.834 -44 -93.501s-68.333 -35.5 -117 -35.5zM336 210.997c35.333 3.33301 62.833 13.832 82.5 31.499s29.5 40.834 29.5 69.501
c0 24 -7.66699 43.5 -23 58.5s-42 28.833 -80 41.5l-112 36c-1.33301 0.666992 -2.83301 1.16699 -4.5 1.5s-3.16699 0.833008 -4.5 1.5c-34.667 -2.66699 -62 -13 -82 -31s-30 -41.333 -30 -70c0 -24 7.66699 -43.5 23 -58.5s42 -28.833 80 -41.5l112 -36
c1.33301 -0.666992 2.83301 -1.16699 4.5 -1.5s3.16699 -0.833008 4.5 -1.5z" />
    <glyph glyph-name="dieresis" unicode="&#xa8;" 
d="M222 603c-10.667 0 -19.667 3.66699 -27 11s-11 16.333 -11 27s3.66699 19.667 11 27s16.333 11 27 11c11.333 0 20.5 -3.66699 27.5 -11s10.5 -16.333 10.5 -27s-3.5 -19.667 -10.5 -27s-16.167 -11 -27.5 -11zM378 603c-10.667 0 -19.667 3.66699 -27 11
s-11 16.333 -11 27s3.66699 19.667 11 27s16.333 11 27 11c11.333 0 20.5 -3.66699 27.5 -11s10.5 -16.333 10.5 -27s-3.5 -19.667 -10.5 -27s-16.167 -11 -27.5 -11z" />
    <glyph glyph-name="copyright" unicode="&#xa9;" horiz-adv-x="812" 
d="M418 167c-33.333 0 -63.333 8.16602 -90 24.499s-47.834 38.333 -63.501 66s-23.5 58.5 -23.5 92.5s7.83301 64.833 23.5 92.5s36.834 49.667 63.501 66s56.667 24.5 90 24.5c25.333 0 49.333 -4.66699 72 -14s43.334 -23 62.001 -41l-25 -28
c-15.333 15.333 -32.166 27 -50.499 35s-37.833 12 -58.5 12c-26 0 -49.333 -6.5 -70 -19.5s-37.167 -30.5 -49.5 -52.5s-18.5 -47 -18.5 -75c0 -27.333 6.16699 -52.166 18.5 -74.499s28.833 -40 49.5 -53s44 -19.5 70 -19.5c20.667 0 40.167 4.16699 58.5 12.5
s35.166 19.833 50.499 34.5l25 -28c-18.667 -18 -39.334 -31.667 -62.001 -41s-46.667 -14 -72 -14zM406 -11.001c-50 0 -96.667 9 -140 27s-81.333 43.333 -114 76s-58.167 71 -76.5 115s-27.5 91.667 -27.5 143s9.16699 99 27.5 143s43.833 82.333 76.5 115
s70.667 58 114 76s90 27 140 27s96.667 -9 140 -27s81.333 -43.333 114 -76s58.167 -71 76.5 -115s27.5 -91.667 27.5 -143s-9.16699 -99 -27.5 -143s-43.833 -82.333 -76.5 -115s-70.667 -58 -114 -76s-90 -27 -140 -27zM406 24.999c45.333 0 87.333 8.33301 126 25
s72.334 40 101.001 70s51.167 64.667 67.5 104s24.5 81.333 24.5 126c0 45.333 -8.16699 87.5 -24.5 126.5s-38.833 73.5 -67.5 103.5s-62.334 53.333 -101.001 70s-80.667 25 -126 25c-44.667 0 -86.5 -8.33301 -125.5 -25s-72.833 -40 -101.5 -70
s-51.167 -64.5 -67.5 -103.5s-24.5 -81.167 -24.5 -126.5c0 -44.667 8.16699 -86.667 24.5 -126s38.833 -74 67.5 -104s62.5 -53.333 101.5 -70s80.833 -25 125.5 -25z" />
    <glyph glyph-name="ordfeminine" unicode="&#xaa;" horiz-adv-x="394" 
d="M173 325c-40 0 -72.833 10.1689 -98.5 30.502s-38.5 47.5 -38.5 81.5c0 35.333 13.333 63.166 40 83.499s62.334 30.5 107.001 30.5c21.333 0 41.666 -2.66699 60.999 -8s37.333 -13 54 -23v59c0 65.333 -35.333 98 -106 98c-18.667 0 -37.5 -2.83301 -56.5 -8.5
s-39.167 -14.167 -60.5 -25.5l-16 32c23.333 11.333 46 20.166 68 26.499s44.667 9.5 68 9.5c45.333 0 80.333 -10.833 105 -32.5s37 -53.167 37 -94.5v-252h-39v40c-33.333 -31.333 -75 -47 -125 -47zM178 359.002c25.333 0 47.833 4.33301 67.5 13s37.167 21 52.5 37v74
c-16 11.333 -33.5 20 -52.5 26s-40.5 9 -64.5 9c-32 0 -57.667 -7.33301 -77 -22s-29 -34.334 -29 -59.001c0 -23.333 9.83301 -42.166 29.5 -56.499s44.167 -21.5 73.5 -21.5z" />
    <glyph glyph-name="guillemotleft" unicode="&#xab;" horiz-adv-x="561" 
d="M266 0l-230 246l230 246h52l-231 -246l231 -246h-52zM457 0l-230 246l230 246h52l-231 -246l231 -246h-52z" />
    <glyph glyph-name="uni00AC" unicode="&#xac;" 
d="M478 0v259h-396v41h437v-300h-41z" />
    <glyph glyph-name="uni00AD" unicode="&#xad;" horiz-adv-x="442" 
d="M53 258v44h336v-44h-336z" />
    <glyph glyph-name="registered" unicode="&#xae;" horiz-adv-x="490" 
d="M244 313c-36.667 0 -69.834 8.66699 -99.501 26s-53.167 41.166 -70.5 71.499s-26 64.166 -26 101.499c0 38 8.66699 72 26 102s40.833 53.667 70.5 71s62.834 26 99.501 26s69.834 -8.66699 99.501 -26s53.167 -41 70.5 -71s26 -64 26 -102
c0 -37.333 -8.66699 -71.166 -26 -101.499s-40.833 -54.166 -70.5 -71.499s-62.834 -26 -99.501 -26zM244 343c31.333 0 59.333 7.33301 84 22s44.167 34.667 58.5 60s21.5 54.333 21.5 87s-7.16699 61.667 -21.5 87s-33.833 45.333 -58.5 60s-52.667 22 -84 22
c-30.667 0 -58.5 -7.33301 -83.5 -22s-44.667 -34.667 -59 -60s-21.5 -54.333 -21.5 -87s7.16699 -61.667 21.5 -87s34 -45.333 59 -60s52.833 -22 83.5 -22zM181 419l0.000976562 187.997h70c17.333 0 32.166 -4.66699 44.499 -14s18.5 -23.666 18.5 -42.999
c0 -11.333 -3.33301 -21.666 -10 -30.999s-15.667 -16.666 -27 -21.999l49 -78h-31l-46 72h-41v-72h-27zM248.001 582.997h-40v-68h40c25.333 0 38 11.333 38 34c0 12 -3.5 20.667 -10.5 26s-16.167 8 -27.5 8z" />
    <glyph glyph-name="macron" unicode="&#xaf;" 
d="M167 620v37h267v-37h-267z" />
    <glyph glyph-name="degree" unicode="&#xb0;" horiz-adv-x="394" 
d="M340 571c0 -25.333 -6.16699 -48.666 -18.5 -69.999s-29.166 -38.333 -50.499 -51s-45.666 -19 -72.999 -19c-26.667 0 -50.834 6.33301 -72.501 19s-38.667 29.667 -51 51s-18.5 44.666 -18.5 69.999s6.16699 48.666 18.5 69.999s29.333 38.333 51 51
s45.834 19 72.501 19c27.333 0 51.666 -6.33301 72.999 -19s38.166 -29.667 50.499 -51s18.5 -44.666 18.5 -69.999zM96 571c0 -28 10 -52 30 -72s44 -30 72 -30s52 10 72 30s30 44 30 72s-10 52 -30 72s-44 30 -72 30s-52 -10 -72 -30s-30 -44 -30 -72z" />
    <glyph glyph-name="plusminus" unicode="&#xb1;" 
d="M111 -1v41h377v-41h-377zM279 162v186h-168v40h168v183h41v-183h168v-40h-168v-186h-41z" />
    <glyph glyph-name="twosuperior" unicode="&#xb2;" horiz-adv-x="284" 
d="M26 350v27.999l131 127c22 21.333 37.833 38.833 47.5 52.5s14.5 28.834 14.5 45.501c0 20 -7.5 36.5 -22.5 49.5s-34.167 19.5 -57.5 19.5c-16.667 0 -32.334 -3.16699 -47.001 -9.5s-31.334 -17.5 -50.001 -33.5l-22 26c18.667 16 37.834 28.333 57.501 37
s40.5 13 62.5 13c34 0 61.667 -9.5 83 -28.5s32 -42.833 32 -71.5c0 -22.667 -5.66699 -42.5 -17 -59.5s-29.666 -37.833 -54.999 -62.5l-103 -100h182v-33h-236z" />
    <glyph glyph-name="threesuperior" unicode="&#xb3;" horiz-adv-x="306" 
d="M148 345c-24.667 0 -48.002 4.00098 -70.002 12.001s-41.667 20.333 -59 37l25 25c16 -15.333 32.333 -26 49 -32s35 -9 55 -9c27.333 0 49.333 6.5 66 19.5s25 29.5 25 49.5c0 18 -8 33.167 -24 45.5s-38 18.5 -66 18.5h-30v31h28c24.667 0 43.834 6.83301 57.501 20.5
s20.5 29.5 20.5 47.5c0 17.333 -7.5 32 -22.5 44s-33.833 18 -56.5 18c-18.667 0 -35.5 -3.16699 -50.5 -9.5s-30.833 -17.5 -47.5 -33.5l-25 25c18 17.333 37.333 30.166 58 38.499s42.334 12.5 65.001 12.5c33.333 0 60.833 -8.83301 82.5 -26.5s32.5 -40.167 32.5 -67.5
c0 -16.667 -5 -32.334 -15 -47.001s-25 -26 -45 -34c23.333 -6.66699 41.5 -17.667 54.5 -33s19.5 -32.666 19.5 -51.999c0 -28.667 -11.833 -52.5 -35.5 -71.5s-54.167 -28.5 -91.5 -28.5z" />
    <glyph glyph-name="acute" unicode="&#xb4;" 
d="M272 596l96 110h67l-119 -110h-44z" />
    <glyph glyph-name="uni00B5" unicode="&#xb5;" horiz-adv-x="531" 
d="M68 -204v696.001h44v-302c0 -48.667 13.667 -87.334 41 -116.001s65 -43 113 -43c33.333 0 63.333 8 90 24s47.667 38.333 63 67v370h44v-492h-44v68c-19.333 -26 -42.666 -45.5 -69.999 -58.5s-58.333 -19.5 -93 -19.5c-30.667 0 -58.334 6 -83.001 18
s-45 28.667 -61 50v-262h-44z" />
    <glyph glyph-name="paragraph" unicode="&#xb6;" horiz-adv-x="626" 
d="M320 0l-0.00195312 305.999h-70c-41.333 0 -77.666 8.5 -108.999 25.5s-55.666 40.333 -72.999 70s-26 63.834 -26 102.501s8.83301 72.667 26.5 102s42 52.333 73 69s66.5 25 106.5 25h296v-700h-46v306h-132v-306h-46zM365.998 348.999h132v308h-132v-308z
M252.998 348.999l67 -0.000976562v308h-67c-52.667 0 -93.167 -14.667 -121.5 -44s-42.5 -65.666 -42.5 -108.999c0 -44 14.167 -80.833 42.5 -110.5s68.833 -44.5 121.5 -44.5z" />
    <glyph glyph-name="periodcentered" unicode="&#xb7;" horiz-adv-x="250" 
d="M125 242c-10.667 0 -19.667 3.66699 -27 11s-11 16.333 -11 27s3.66699 19.667 11 27s16.333 11 27 11s19.667 -3.66699 27 -11s11 -16.333 11 -27s-3.66699 -19.667 -11 -27s-16.333 -11 -27 -11z" />
    <glyph glyph-name="cedilla" unicode="&#xb8;" 
d="M280 -224c-44.667 0 -80.665 12.666 -107.998 37.999l23 25c27.333 -21.333 55.666 -32 84.999 -32c21.333 0 38.166 4.83301 50.499 14.5s18.5 22.834 18.5 39.501c0 15.333 -6.66699 27.5 -20 36.5s-32 13.5 -56 13.5h-23l24 89h33l-16 -60
c28.667 -0.666992 51.667 -8 69 -22s26 -32.667 26 -56c0 -25.333 -9.83301 -46 -29.5 -62s-45.167 -24 -76.5 -24z" />
    <glyph glyph-name="onesuperior" unicode="&#xb9;" horiz-adv-x="151" 
d="M82 350v308l-61 -26v37l73 31h24v-350h-36z" />
    <glyph glyph-name="ordmasculine" unicode="&#xba;" horiz-adv-x="452" 
d="M226 325c-34.667 0 -66 8.66699 -94 26s-50.333 40.5 -67 69.5s-25 61.5 -25 97.5s8.33301 68.667 25 98s39 52.5 67 69.5s59.333 25.5 94 25.5s66 -8.5 94 -25.5s50.333 -40.167 67 -69.5s25 -62 25 -98s-8.33301 -68.5 -25 -97.5s-39 -52.167 -67 -69.5
s-59.333 -26 -94 -26zM226 363c27.333 0 52 6.83301 74 20.5s39.5 32.334 52.5 56.001s19.5 49.834 19.5 78.501c0 29.333 -6.5 55.666 -19.5 78.999s-30.5 41.833 -52.5 55.5s-46.667 20.5 -74 20.5c-26.667 0 -51.167 -6.83301 -73.5 -20.5s-40 -32.167 -53 -55.5
s-19.5 -49.666 -19.5 -78.999c0 -28.667 6.5 -54.834 19.5 -78.501s30.667 -42.334 53 -56.001s46.833 -20.5 73.5 -20.5z" />
    <glyph glyph-name="guillemotright" unicode="&#xbb;" horiz-adv-x="561" 
d="M295 492l230 -246l-230 -246h-52l231 246l-231 246h52zM104 492l230 -246l-230 -246h-52l231 246l-231 246h52z" />
    <glyph glyph-name="onequarter" unicode="&#xbc;" horiz-adv-x="575" 
d="M478 0v93h-200v28l196 229h40v-224h42v-33h-42v-93h-36zM327 126h151v176zM82 350v308l-61 -26v37l73 31h24v-350h-36zM31 0l393 700h43l-393 -700h-43z" />
    <glyph glyph-name="onehalf" unicode="&#xbd;" horiz-adv-x="611" 
d="M82 350v308l-61 -26v37l73 31h24v-350h-36zM31 0l393 700h43l-393 -700h-43zM353 0v27.999l131 127c22 21.333 37.833 38.833 47.5 52.5s14.5 28.834 14.5 45.501c0 20 -7.5 36.5 -22.5 49.5s-34.167 19.5 -57.5 19.5c-16.667 0 -32.334 -3.16699 -47.001 -9.5
s-31.334 -17.5 -50.001 -33.5l-22 26c18.667 16 37.834 28.333 57.501 37s40.5 13 62.5 13c34 0 61.667 -9.5 83 -28.5s32 -42.833 32 -71.5c0 -22.667 -5.66699 -42.5 -17 -59.5s-29.666 -37.833 -54.999 -62.5l-103 -100h182v-33h-236z" />
    <glyph glyph-name="threequarters" unicode="&#xbe;" horiz-adv-x="669" 
d="M572 0v93h-200v28l196 229h40v-224h42v-33h-42v-93h-36zM421 126h151v176zM148 345c-24.667 0 -48.002 4.00098 -70.002 12.001s-41.667 20.333 -59 37l25 25c16 -15.333 32.333 -26 49 -32s35 -9 55 -9c27.333 0 49.333 6.5 66 19.5s25 29.5 25 49.5
c0 18 -8 33.167 -24 45.5s-38 18.5 -66 18.5h-30v31h28c24.667 0 43.834 6.83301 57.501 20.5s20.5 29.5 20.5 47.5c0 17.333 -7.5 32 -22.5 44s-33.833 18 -56.5 18c-18.667 0 -35.5 -3.16699 -50.5 -9.5s-30.833 -17.5 -47.5 -33.5l-25 25
c18 17.333 37.333 30.166 58 38.499s42.334 12.5 65.001 12.5c33.333 0 60.833 -8.83301 82.5 -26.5s32.5 -40.167 32.5 -67.5c0 -16.667 -5 -32.334 -15 -47.001s-25 -26 -45 -34c23.333 -6.66699 41.5 -17.667 54.5 -33s19.5 -32.666 19.5 -51.999
c0 -28.667 -11.833 -52.5 -35.5 -71.5s-54.167 -28.5 -91.5 -28.5zM124.998 0.000976562l393 700h43l-393 -700h-43z" />
    <glyph glyph-name="questiondown" unicode="&#xbf;" horiz-adv-x="500" 
d="M305 304c1.33301 -28 -0.167969 -53.332 -4.50098 -75.999s-12.833 -43.334 -25.5 -62.001s-30.667 -36.334 -54 -53.001l-41 -29c-30 -21.333 -52 -41.666 -66 -60.999s-21 -43.333 -21 -72c0 -22.667 7.16699 -43.167 21.5 -61.5s33.5 -32.833 57.5 -43.5
s51.333 -16 82 -16c31.333 0 62.5 7 93.5 21s61.167 37.667 90.5 71l33 -35c-23.333 -24 -47.166 -43.5 -71.499 -58.5s-49 -25.833 -74 -32.5s-49.833 -10 -74.5 -10c-40 0 -75.333 7.5 -106 22.5s-54.667 35 -72 60s-26 53.167 -26 84.5c0 24.667 4 46.167 12 64.5
s20.333 35.666 37 51.999s38 33.5 64 51.5l38 27c28.667 20 47.5 42.833 56.5 68.5s12.167 54.834 9.5 87.501h41zM283.999 502.001c10.667 0 19.667 -3.66699 27 -11s11 -16.333 11 -27c0 -10 -3.66699 -18.667 -11 -26s-16.333 -11 -27 -11c-10 0 -18.667 3.66699 -26 11
s-11 16 -11 26c0 10.667 3.66699 19.667 11 27s16 11 26 11z" />
    <glyph glyph-name="Agrave" unicode="&#xc0;" horiz-adv-x="655" 
d="M8 0l292 700h57l291 -700h-50l-97 237h-347l-98 -237h-48zM171 278h313l-156 379zM319 804l-118 110h68l94 -110h-44z" />
    <glyph glyph-name="Aacute" unicode="&#xc1;" horiz-adv-x="655" 
d="M8 0l292 700h57l291 -700h-50l-97 237h-347l-98 -237h-48zM171 278h313l-156 379zM293 804l96 110h67l-119 -110h-44z" />
    <glyph glyph-name="Acircumflex" unicode="&#xc2;" horiz-adv-x="655" 
d="M8 0l292 700h57l291 -700h-50l-97 237h-347l-98 -237h-48zM171 278h313l-156 379zM416 799l-88 83l-88 -83h-37l99 115h52l99 -115h-37z" />
    <glyph glyph-name="Atilde" unicode="&#xc3;" horiz-adv-x="655" 
d="M8 0l292 700h57l291 -700h-50l-97 237h-347l-98 -237h-48zM171 278h313l-156 379zM208 801l-37.001 6.00098c13.333 60 42 90 86 90c17.333 0 34.166 -4.83301 50.499 -14.5l48 -28.5c15.667 -9.33301 30.5 -14 44.5 -14c11.333 0 20.833 4.33301 28.5 13
s13.834 23.667 18.501 45l37 -6c-6.66699 -30.667 -17.5 -53.334 -32.5 -68.001s-33.167 -22 -54.5 -22c-16.667 0 -33.167 4.66699 -49.5 14s-32.166 18.833 -47.499 28.5s-30.333 14.5 -45 14.5c-12.667 0 -22.5 -4.33301 -29.5 -13s-12.833 -23.667 -17.5 -45z" />
    <glyph glyph-name="Adieresis" unicode="&#xc4;" horiz-adv-x="655" 
d="M8 0l292 700h57l291 -700h-50l-97 237h-347l-98 -237h-48zM171 278h313l-156 379zM250 811c-10.667 0 -19.667 3.66699 -27 11s-11 16.333 -11 27s3.66699 19.667 11 27s16.333 11 27 11c11.333 0 20.5 -3.66699 27.5 -11s10.5 -16.333 10.5 -27s-3.5 -19.667 -10.5 -27
s-16.167 -11 -27.5 -11zM406 811c-10.667 0 -19.667 3.66699 -27 11s-11 16.333 -11 27s3.66699 19.667 11 27s16.333 11 27 11c11.333 0 20.5 -3.66699 27.5 -11s10.5 -16.333 10.5 -27s-3.5 -19.667 -10.5 -27s-16.167 -11 -27.5 -11z" />
    <glyph glyph-name="Aring" unicode="&#xc5;" horiz-adv-x="655" 
d="M8 0l292 700h57l291 -700h-50l-97 237h-347l-98 -237h-48zM171 278h313l-156 379zM328 789c-20 0 -38.001 4.83301 -54.001 14.5s-28.667 22.667 -38 39s-14 34.166 -14 53.499s4.66699 37 14 53s22 28.833 38 38.5s34 14.5 54 14.5
c20.667 0 38.834 -4.83301 54.501 -14.5s28.167 -22.5 37.5 -38.5s14 -33.667 14 -53s-4.66699 -37.166 -14 -53.499s-22 -29.333 -38 -39s-34 -14.5 -54 -14.5zM327.999 822c20 0 36.998 7.16699 50.998 21.5s21 31.833 21 52.5s-7.16699 38 -21.5 52
s-31.166 21 -50.499 21c-20 0 -37 -7 -51 -21s-21 -31.333 -21 -52s6.83301 -38.167 20.5 -52.5s30.834 -21.5 51.501 -21.5z" />
    <glyph glyph-name="AE" unicode="&#xc6;" horiz-adv-x="939" 
d="M8 0l292 700h604v-43h-529l117 -282h270v-43h-252l120 -289h278v-43h-310l-97 237h-347l-98 -237h-48zM171 278h313l-156 379z" />
    <glyph glyph-name="Ccedilla" unicode="&#xc7;" horiz-adv-x="724" 
d="M395 -224c-44.667 0 -80.667 12.665 -108 37.998l23 25c27.333 -21.333 55.666 -32 84.999 -32c21.333 0 38.166 4.83301 50.499 14.5s18.5 22.834 18.5 39.501c0 15.333 -6.66699 27.5 -20 36.5s-32 13.5 -56 13.5h-23l21 79c-48 2.66699 -92.667 13.667 -134 33
s-77.166 45.333 -107.499 78s-54 70.167 -71 112.5s-25.5 87.833 -25.5 136.5c0 50 9.16699 96.833 27.5 140.5s43.666 82 75.999 115s70.333 58.833 114 77.5s90.834 28 141.501 28c34.667 0 68.167 -4 100.5 -12s62.833 -20 91.5 -36s54.667 -36 78 -60l-30 -35
c-28.667 31.333 -64.5 55.833 -107.5 73.5s-87.167 26.5 -132.5 26.5c-44.667 0 -85.834 -8.16699 -123.501 -24.5s-70.667 -39 -99 -68s-50.333 -62.667 -66 -101s-23.5 -79.833 -23.5 -124.5s7.83301 -86.167 23.5 -124.5s37.667 -72 66 -101s61.333 -51.667 99 -68
s78.834 -24.5 123.501 -24.5c45.333 0 89.5 9 132.5 27s78.833 42.333 107.5 73l30 -35c-34 -34 -73.167 -60.167 -117.5 -78.5s-91.166 -28.166 -140.499 -29.499l-13 -49c28.667 -0.666992 51.667 -8 69 -22s26 -32.667 26 -56c0 -25.333 -9.83301 -46 -29.5 -62
s-45.167 -24 -76.5 -24z" />
    <glyph glyph-name="Egrave" unicode="&#xc8;" horiz-adv-x="602" 
d="M83 0v700h484v-43h-438v-282h286v-43h-286v-289h442v-43h-488zM330 804l-118 110h68l94 -110h-44z" />
    <glyph glyph-name="Eacute" unicode="&#xc9;" horiz-adv-x="602" 
d="M83 0v700h484v-43h-438v-282h286v-43h-286v-289h442v-43h-488zM304 804l96 110h67l-119 -110h-44z" />
    <glyph glyph-name="Ecircumflex" unicode="&#xca;" horiz-adv-x="602" 
d="M83 0v700h484v-43h-438v-282h286v-43h-286v-289h442v-43h-488zM427 799l-88 83l-88 -83h-37l99 115h52l99 -115h-37z" />
    <glyph glyph-name="Edieresis" unicode="&#xcb;" horiz-adv-x="602" 
d="M83 0v700h484v-43h-438v-282h286v-43h-286v-289h442v-43h-488zM261 811c-10.667 0 -19.667 3.66699 -27 11s-11 16.333 -11 27s3.66699 19.667 11 27s16.333 11 27 11c11.333 0 20.5 -3.66699 27.5 -11s10.5 -16.333 10.5 -27s-3.5 -19.667 -10.5 -27
s-16.167 -11 -27.5 -11zM417 811c-10.667 0 -19.667 3.66699 -27 11s-11 16.333 -11 27s3.66699 19.667 11 27s16.333 11 27 11c11.333 0 20.5 -3.66699 27.5 -11s10.5 -16.333 10.5 -27s-3.5 -19.667 -10.5 -27s-16.167 -11 -27.5 -11z" />
    <glyph glyph-name="Igrave" unicode="&#xcc;" horiz-adv-x="212" 
d="M83 0v700h46v-700h-46zM97 804l-118 110h68l94 -110h-44z" />
    <glyph glyph-name="Iacute" unicode="&#xcd;" horiz-adv-x="212" 
d="M83 0v700h46v-700h-46zM71 804l96 110h67l-119 -110h-44z" />
    <glyph glyph-name="Icircumflex" unicode="&#xce;" horiz-adv-x="212" 
d="M83 0v700h46v-700h-46zM194 799l-88 83l-88 -83h-37l99 115h52l99 -115h-37z" />
    <glyph glyph-name="Idieresis" unicode="&#xcf;" horiz-adv-x="212" 
d="M83 0v700h46v-700h-46zM28 811c-10.667 0 -19.667 3.66699 -27 11s-11 16.333 -11 27s3.66699 19.667 11 27s16.333 11 27 11c11.333 0 20.5 -3.66699 27.5 -11s10.5 -16.333 10.5 -27s-3.5 -19.667 -10.5 -27s-16.167 -11 -27.5 -11zM184 811
c-10.667 0 -19.667 3.66699 -27 11s-11 16.333 -11 27s3.66699 19.667 11 27s16.333 11 27 11c11.333 0 20.5 -3.66699 27.5 -11s10.5 -16.333 10.5 -27s-3.5 -19.667 -10.5 -27s-16.167 -11 -27.5 -11z" />
    <glyph glyph-name="Eth" unicode="&#xd0;" horiz-adv-x="713" 
d="M83 0v334h-70v41h70v325h214c55.333 0 105.5 -8.83301 150.5 -26.5s83.833 -42.167 116.5 -73.5s57.667 -68.333 75 -111s26 -89 26 -139s-8.66699 -96.333 -26 -139s-42.333 -79.667 -75 -111s-71.5 -55.833 -116.5 -73.5s-95.167 -26.5 -150.5 -26.5h-214zM129 43h174
c44.667 0 86.167 7.66699 124.5 23s71.666 36.833 99.999 64.5s50.5 60.167 66.5 97.5s24 78 24 122s-8 84.667 -24 122s-38.167 69.833 -66.5 97.5s-61.666 49.167 -99.999 64.5s-79.833 23 -124.5 23h-174v-282h219v-41h-219v-291z" />
    <glyph glyph-name="Ntilde" unicode="&#xd1;" horiz-adv-x="714" 
d="M83 0v700h50l452 -619v619h46v-700h-40l-462 632v-632h-46zM237 801l-37.001 6.00098c13.333 60 42 90 86 90c17.333 0 34.166 -4.83301 50.499 -14.5l48 -28.5c15.667 -9.33301 30.5 -14 44.5 -14c11.333 0 20.833 4.33301 28.5 13s13.834 23.667 18.501 45l37 -6
c-6.66699 -30.667 -17.5 -53.334 -32.5 -68.001s-33.167 -22 -54.5 -22c-16.667 0 -33.167 4.66699 -49.5 14s-32.166 18.833 -47.499 28.5s-30.333 14.5 -45 14.5c-12.667 0 -22.5 -4.33301 -29.5 -13s-12.833 -23.667 -17.5 -45z" />
    <glyph glyph-name="Ograve" unicode="&#xd2;" horiz-adv-x="808" 
d="M404 -11c-49.333 0 -95.5 9.16699 -138.5 27.5s-80.833 44 -113.5 77s-58.167 71.333 -76.5 115s-27.5 90.834 -27.5 141.501s9.16699 97.834 27.5 141.501s43.833 82 76.5 115s70.5 58.667 113.5 77s89.167 27.5 138.5 27.5s95.5 -9.16699 138.5 -27.5
s80.833 -44 113.5 -77s58.167 -71.333 76.5 -115s27.5 -90.834 27.5 -141.501s-9.16699 -97.834 -27.5 -141.501s-43.833 -82 -76.5 -115s-70.5 -58.667 -113.5 -77s-89.167 -27.5 -138.5 -27.5zM404 32c43.333 0 83.833 8.16699 121.5 24.5s70.5 38.833 98.5 67.5
s49.833 62.334 65.5 101.001s23.5 80.334 23.5 125.001s-7.83301 86.334 -23.5 125.001s-37.5 72.334 -65.5 101.001s-60.833 51.167 -98.5 67.5s-78.167 24.5 -121.5 24.5s-83.833 -8.16699 -121.5 -24.5s-70.5 -38.833 -98.5 -67.5s-49.833 -62.334 -65.5 -101.001
s-23.5 -80.334 -23.5 -125.001s7.83301 -86.334 23.5 -125.001s37.5 -72.334 65.5 -101.001s60.833 -51.167 98.5 -67.5s78.167 -24.5 121.5 -24.5zM395 804l-118 110h68l94 -110h-44z" />
    <glyph glyph-name="Oacute" unicode="&#xd3;" horiz-adv-x="808" 
d="M404 -11c-49.333 0 -95.5 9.16699 -138.5 27.5s-80.833 44 -113.5 77s-58.167 71.333 -76.5 115s-27.5 90.834 -27.5 141.501s9.16699 97.834 27.5 141.501s43.833 82 76.5 115s70.5 58.667 113.5 77s89.167 27.5 138.5 27.5s95.5 -9.16699 138.5 -27.5
s80.833 -44 113.5 -77s58.167 -71.333 76.5 -115s27.5 -90.834 27.5 -141.501s-9.16699 -97.834 -27.5 -141.501s-43.833 -82 -76.5 -115s-70.5 -58.667 -113.5 -77s-89.167 -27.5 -138.5 -27.5zM404 32c43.333 0 83.833 8.16699 121.5 24.5s70.5 38.833 98.5 67.5
s49.833 62.334 65.5 101.001s23.5 80.334 23.5 125.001s-7.83301 86.334 -23.5 125.001s-37.5 72.334 -65.5 101.001s-60.833 51.167 -98.5 67.5s-78.167 24.5 -121.5 24.5s-83.833 -8.16699 -121.5 -24.5s-70.5 -38.833 -98.5 -67.5s-49.833 -62.334 -65.5 -101.001
s-23.5 -80.334 -23.5 -125.001s7.83301 -86.334 23.5 -125.001s37.5 -72.334 65.5 -101.001s60.833 -51.167 98.5 -67.5s78.167 -24.5 121.5 -24.5zM369 804l96 110h67l-119 -110h-44z" />
    <glyph glyph-name="Ocircumflex" unicode="&#xd4;" horiz-adv-x="808" 
d="M404 -11c-49.333 0 -95.5 9.16699 -138.5 27.5s-80.833 44 -113.5 77s-58.167 71.333 -76.5 115s-27.5 90.834 -27.5 141.501s9.16699 97.834 27.5 141.501s43.833 82 76.5 115s70.5 58.667 113.5 77s89.167 27.5 138.5 27.5s95.5 -9.16699 138.5 -27.5
s80.833 -44 113.5 -77s58.167 -71.333 76.5 -115s27.5 -90.834 27.5 -141.501s-9.16699 -97.834 -27.5 -141.501s-43.833 -82 -76.5 -115s-70.5 -58.667 -113.5 -77s-89.167 -27.5 -138.5 -27.5zM404 32c43.333 0 83.833 8.16699 121.5 24.5s70.5 38.833 98.5 67.5
s49.833 62.334 65.5 101.001s23.5 80.334 23.5 125.001s-7.83301 86.334 -23.5 125.001s-37.5 72.334 -65.5 101.001s-60.833 51.167 -98.5 67.5s-78.167 24.5 -121.5 24.5s-83.833 -8.16699 -121.5 -24.5s-70.5 -38.833 -98.5 -67.5s-49.833 -62.334 -65.5 -101.001
s-23.5 -80.334 -23.5 -125.001s7.83301 -86.334 23.5 -125.001s37.5 -72.334 65.5 -101.001s60.833 -51.167 98.5 -67.5s78.167 -24.5 121.5 -24.5zM492 799l-88 83l-88 -83h-37l99 115h52l99 -115h-37z" />
    <glyph glyph-name="Otilde" unicode="&#xd5;" horiz-adv-x="808" 
d="M404 -11c-49.333 0 -95.5 9.16699 -138.5 27.5s-80.833 44 -113.5 77s-58.167 71.333 -76.5 115s-27.5 90.834 -27.5 141.501s9.16699 97.834 27.5 141.501s43.833 82 76.5 115s70.5 58.667 113.5 77s89.167 27.5 138.5 27.5s95.5 -9.16699 138.5 -27.5
s80.833 -44 113.5 -77s58.167 -71.333 76.5 -115s27.5 -90.834 27.5 -141.501s-9.16699 -97.834 -27.5 -141.501s-43.833 -82 -76.5 -115s-70.5 -58.667 -113.5 -77s-89.167 -27.5 -138.5 -27.5zM404 32c43.333 0 83.833 8.16699 121.5 24.5s70.5 38.833 98.5 67.5
s49.833 62.334 65.5 101.001s23.5 80.334 23.5 125.001s-7.83301 86.334 -23.5 125.001s-37.5 72.334 -65.5 101.001s-60.833 51.167 -98.5 67.5s-78.167 24.5 -121.5 24.5s-83.833 -8.16699 -121.5 -24.5s-70.5 -38.833 -98.5 -67.5s-49.833 -62.334 -65.5 -101.001
s-23.5 -80.334 -23.5 -125.001s7.83301 -86.334 23.5 -125.001s37.5 -72.334 65.5 -101.001s60.833 -51.167 98.5 -67.5s78.167 -24.5 121.5 -24.5zM284 801l-37.001 6.00098c13.333 60 42 90 86 90c17.333 0 34.166 -4.83301 50.499 -14.5l48 -28.5
c15.667 -9.33301 30.5 -14 44.5 -14c11.333 0 20.833 4.33301 28.5 13s13.834 23.667 18.501 45l37 -6c-6.66699 -30.667 -17.5 -53.334 -32.5 -68.001s-33.167 -22 -54.5 -22c-16.667 0 -33.167 4.66699 -49.5 14s-32.166 18.833 -47.499 28.5s-30.333 14.5 -45 14.5
c-12.667 0 -22.5 -4.33301 -29.5 -13s-12.833 -23.667 -17.5 -45z" />
    <glyph glyph-name="Odieresis" unicode="&#xd6;" horiz-adv-x="808" 
d="M404 -11c-49.333 0 -95.5 9.16699 -138.5 27.5s-80.833 44 -113.5 77s-58.167 71.333 -76.5 115s-27.5 90.834 -27.5 141.501s9.16699 97.834 27.5 141.501s43.833 82 76.5 115s70.5 58.667 113.5 77s89.167 27.5 138.5 27.5s95.5 -9.16699 138.5 -27.5
s80.833 -44 113.5 -77s58.167 -71.333 76.5 -115s27.5 -90.834 27.5 -141.501s-9.16699 -97.834 -27.5 -141.501s-43.833 -82 -76.5 -115s-70.5 -58.667 -113.5 -77s-89.167 -27.5 -138.5 -27.5zM404 32c43.333 0 83.833 8.16699 121.5 24.5s70.5 38.833 98.5 67.5
s49.833 62.334 65.5 101.001s23.5 80.334 23.5 125.001s-7.83301 86.334 -23.5 125.001s-37.5 72.334 -65.5 101.001s-60.833 51.167 -98.5 67.5s-78.167 24.5 -121.5 24.5s-83.833 -8.16699 -121.5 -24.5s-70.5 -38.833 -98.5 -67.5s-49.833 -62.334 -65.5 -101.001
s-23.5 -80.334 -23.5 -125.001s7.83301 -86.334 23.5 -125.001s37.5 -72.334 65.5 -101.001s60.833 -51.167 98.5 -67.5s78.167 -24.5 121.5 -24.5zM326 811c-10.667 0 -19.667 3.66699 -27 11s-11 16.333 -11 27s3.66699 19.667 11 27s16.333 11 27 11
c11.333 0 20.5 -3.66699 27.5 -11s10.5 -16.333 10.5 -27s-3.5 -19.667 -10.5 -27s-16.167 -11 -27.5 -11zM482 811c-10.667 0 -19.667 3.66699 -27 11s-11 16.333 -11 27s3.66699 19.667 11 27s16.333 11 27 11c11.333 0 20.5 -3.66699 27.5 -11s10.5 -16.333 10.5 -27
s-3.5 -19.667 -10.5 -27s-16.167 -11 -27.5 -11z" />
    <glyph glyph-name="multiply" unicode="&#xd7;" 
d="M152 172l-30 28l150 160l-150 160l30 28l148 -158l148 157l30 -28l-150 -159l150 -160l-30 -28l-148 158z" />
    <glyph glyph-name="Oslash" unicode="&#xd8;" horiz-adv-x="808" 
d="M404 -11c-40 0 -78 6.16699 -114 18.5s-68.667 29.5 -98 51.5l-49 -59h-59l73 88c-33.333 33.333 -59.833 72.333 -79.5 117s-29.5 93 -29.5 145c0 50.667 9.16699 97.834 27.5 141.501s43.833 82 76.5 115s70.5 58.667 113.5 77s89.167 27.5 138.5 27.5
c40 0 78 -6.16699 114 -18.5s68.667 -29.5 98 -51.5l49 59h59l-73 -88c33.333 -32.667 59.833 -71.5 79.5 -116.5s29.5 -93.5 29.5 -145.5c0 -50.667 -9.16699 -97.834 -27.5 -141.501s-43.833 -82 -76.5 -115s-70.5 -58.667 -113.5 -77s-89.167 -27.5 -138.5 -27.5z
M186 122l402 485.002c-25.333 19.333 -53.5 34.333 -84.5 45s-64.167 16 -99.5 16c-43.333 0 -83.833 -8.16699 -121.5 -24.5s-70.5 -38.833 -98.5 -67.5s-49.833 -62.334 -65.5 -101.001s-23.5 -80.334 -23.5 -125.001s8 -86.5 24 -125.5s38.333 -73.167 67 -102.5z
M404 32.002c43.333 0 83.834 8.16504 121.501 24.498s70.5 38.833 98.5 67.5s49.833 62.334 65.5 101.001s23.5 80.334 23.5 125.001c0 45.333 -8 87.5 -24 126.5s-38.333 72.833 -67 101.5l-402 -485c25.333 -19.333 53.666 -34.333 84.999 -45s64.333 -16 99 -16z" />
    <glyph glyph-name="Ugrave" unicode="&#xd9;" horiz-adv-x="694" 
d="M347 -11c-55.333 0 -104 11.833 -146 35.5s-74.667 58.167 -98 103.5s-35 100.333 -35 165v407h46v-407c0 -55.333 10 -102.5 30 -141.5s47.5 -68.667 82.5 -89s75.167 -30.5 120.5 -30.5s85.5 10.167 120.5 30.5s62.5 50 82.5 89s30 86.167 30 141.5v407h46v-407
c0 -64.667 -11.667 -119.667 -35 -165s-56 -79.833 -98 -103.5s-90.667 -35.5 -146 -35.5zM338 804l-118 110h68l94 -110h-44z" />
    <glyph glyph-name="Uacute" unicode="&#xda;" horiz-adv-x="694" 
d="M347 -11c-55.333 0 -104 11.833 -146 35.5s-74.667 58.167 -98 103.5s-35 100.333 -35 165v407h46v-407c0 -55.333 10 -102.5 30 -141.5s47.5 -68.667 82.5 -89s75.167 -30.5 120.5 -30.5s85.5 10.167 120.5 30.5s62.5 50 82.5 89s30 86.167 30 141.5v407h46v-407
c0 -64.667 -11.667 -119.667 -35 -165s-56 -79.833 -98 -103.5s-90.667 -35.5 -146 -35.5zM312 804l96 110h67l-119 -110h-44z" />
    <glyph glyph-name="Ucircumflex" unicode="&#xdb;" horiz-adv-x="694" 
d="M347 -11c-55.333 0 -104 11.833 -146 35.5s-74.667 58.167 -98 103.5s-35 100.333 -35 165v407h46v-407c0 -55.333 10 -102.5 30 -141.5s47.5 -68.667 82.5 -89s75.167 -30.5 120.5 -30.5s85.5 10.167 120.5 30.5s62.5 50 82.5 89s30 86.167 30 141.5v407h46v-407
c0 -64.667 -11.667 -119.667 -35 -165s-56 -79.833 -98 -103.5s-90.667 -35.5 -146 -35.5zM435 799l-88 83l-88 -83h-37l99 115h52l99 -115h-37z" />
    <glyph glyph-name="Udieresis" unicode="&#xdc;" horiz-adv-x="694" 
d="M347 -11c-55.333 0 -104 11.833 -146 35.5s-74.667 58.167 -98 103.5s-35 100.333 -35 165v407h46v-407c0 -55.333 10 -102.5 30 -141.5s47.5 -68.667 82.5 -89s75.167 -30.5 120.5 -30.5s85.5 10.167 120.5 30.5s62.5 50 82.5 89s30 86.167 30 141.5v407h46v-407
c0 -64.667 -11.667 -119.667 -35 -165s-56 -79.833 -98 -103.5s-90.667 -35.5 -146 -35.5zM269 811c-10.667 0 -19.667 3.66699 -27 11s-11 16.333 -11 27s3.66699 19.667 11 27s16.333 11 27 11c11.333 0 20.5 -3.66699 27.5 -11s10.5 -16.333 10.5 -27
s-3.5 -19.667 -10.5 -27s-16.167 -11 -27.5 -11zM425 811c-10.667 0 -19.667 3.66699 -27 11s-11 16.333 -11 27s3.66699 19.667 11 27s16.333 11 27 11c11.333 0 20.5 -3.66699 27.5 -11s10.5 -16.333 10.5 -27s-3.5 -19.667 -10.5 -27s-16.167 -11 -27.5 -11z" />
    <glyph glyph-name="Yacute" unicode="&#xdd;" horiz-adv-x="609" 
d="M281 0v292l-274 408h55l243 -366l244 366h53l-275 -410v-290h-46zM270 804l96 110h67l-119 -110h-44z" />
    <glyph glyph-name="Thorn" unicode="&#xde;" horiz-adv-x="621" 
d="M83 0v700h46v-145h227c46 0 85.667 -8 119 -24s58.833 -38.5 76.5 -67.5s26.5 -63.167 26.5 -102.5s-8.83301 -73.833 -26.5 -103.5s-43.167 -52.667 -76.5 -69s-73 -24.5 -119 -24.5h-227v-164h-46zM129 207h225c38 0 70.167 6.33301 96.5 19s46.333 30.667 60 54
s20.5 50.333 20.5 81s-6.83301 57.167 -20.5 79.5s-33.667 39.833 -60 52.5s-58.5 19 -96.5 19h-225v-305z" />
    <glyph glyph-name="germandbls" unicode="&#xdf;" horiz-adv-x="571" 
d="M387 -10c-65.333 0 -120 21.335 -164 64.002l29 30c35.333 -34.667 80.333 -52 135 -52c37.333 0 66.666 8.5 87.999 25.5s32 39.833 32 68.5c0 25.333 -6.33301 45.833 -19 61.5s-33.667 28.5 -63 38.5l-78 27c-31.333 11.333 -54.666 25.666 -69.999 42.999
s-23 38.333 -23 63c0 23.333 5.66699 42.5 17 57.5s25.5 27.833 42.5 38.5l50.5 32c16.667 10.667 30.667 23.167 42 37.5s17 32.833 17 55.5c0 33.333 -13.333 61 -40 83s-61.667 33 -105 33c-52.667 0 -93.5 -16.5 -122.5 -49.5s-43.5 -79.833 -43.5 -140.5v-506h-44v506
c0 72.667 18.833 129.834 56.5 171.501s88.834 62.5 153.501 62.5c36.667 0 69.167 -6.83301 97.5 -20.5s50.666 -32.5 66.999 -56.5s24.5 -51.667 24.5 -83c0 -27.333 -5.66699 -49.833 -17 -67.5s-25.333 -32.5 -42 -44.5s-33.5 -23 -50.5 -33
s-31.167 -20.833 -42.5 -32.5s-17 -26.167 -17 -43.5c0 -14.667 5 -27.334 15 -38.001s25.667 -19.667 47 -27l78 -27c37.333 -12.667 65.5 -30.834 84.5 -54.501s28.5 -52.5 28.5 -86.5c0 -40.667 -15 -73.5 -45 -98.5s-69.667 -37.5 -119 -37.5z" />
    <glyph glyph-name="agrave" unicode="&#xe0;" horiz-adv-x="494" 
d="M216 -10c-36 0 -67.667 6.16992 -95 18.5029s-48.666 29.666 -63.999 51.999s-23 48.166 -23 77.499c0 45.333 17.667 81.833 53 109.5s82.333 41.5 141 41.5s110.667 -14.333 156 -43v82c0 45.333 -12.333 79.166 -37 101.499s-60 33.5 -106 33.5
c-22.667 0 -46.334 -3.66699 -71.001 -11s-53 -19.333 -85 -36l-19 39c31.333 16 61.333 27.833 90 35.5s57.334 11.5 86.001 11.5c59.333 0 105.166 -14.167 137.499 -42.5s48.5 -69.5 48.5 -123.5v-336h-44v55c-22.667 -20.667 -48 -36.667 -76 -48s-58.667 -17 -92 -17z
M78 139.003c0 -32 13.332 -58.333 39.999 -79s60.334 -31 101.001 -31c35.333 0 66.333 6.16699 93 18.5s50.667 29.833 72 52.5v102c-22 16.667 -46 29 -72 37s-55.667 12 -89 12c-43.333 0 -78.333 -10.333 -105 -31s-40 -47.667 -40 -81zM224.999 596.003l-118 110h68
l94 -110h-44z" />
    <glyph glyph-name="aacute" unicode="&#xe1;" horiz-adv-x="494" 
d="M216 -10c-36 0 -67.667 6.16992 -95 18.5029s-48.666 29.666 -63.999 51.999s-23 48.166 -23 77.499c0 45.333 17.667 81.833 53 109.5s82.333 41.5 141 41.5s110.667 -14.333 156 -43v82c0 45.333 -12.333 79.166 -37 101.499s-60 33.5 -106 33.5
c-22.667 0 -46.334 -3.66699 -71.001 -11s-53 -19.333 -85 -36l-19 39c31.333 16 61.333 27.833 90 35.5s57.334 11.5 86.001 11.5c59.333 0 105.166 -14.167 137.499 -42.5s48.5 -69.5 48.5 -123.5v-336h-44v55c-22.667 -20.667 -48 -36.667 -76 -48s-58.667 -17 -92 -17z
M78 139.003c0 -32 13.332 -58.333 39.999 -79s60.334 -31 101.001 -31c35.333 0 66.333 6.16699 93 18.5s50.667 29.833 72 52.5v102c-22 16.667 -46 29 -72 37s-55.667 12 -89 12c-43.333 0 -78.333 -10.333 -105 -31s-40 -47.667 -40 -81zM198.999 596.003l96 110h67
l-119 -110h-44z" />
    <glyph glyph-name="acircumflex" unicode="&#xe2;" horiz-adv-x="494" 
d="M216 -10c-36 0 -67.667 6.16992 -95 18.5029s-48.666 29.666 -63.999 51.999s-23 48.166 -23 77.499c0 45.333 17.667 81.833 53 109.5s82.333 41.5 141 41.5s110.667 -14.333 156 -43v82c0 45.333 -12.333 79.166 -37 101.499s-60 33.5 -106 33.5
c-22.667 0 -46.334 -3.66699 -71.001 -11s-53 -19.333 -85 -36l-19 39c31.333 16 61.333 27.833 90 35.5s57.334 11.5 86.001 11.5c59.333 0 105.166 -14.167 137.499 -42.5s48.5 -69.5 48.5 -123.5v-336h-44v55c-22.667 -20.667 -48 -36.667 -76 -48s-58.667 -17 -92 -17z
M78 139.003c0 -32 13.332 -58.333 39.999 -79s60.334 -31 101.001 -31c35.333 0 66.333 6.16699 93 18.5s50.667 29.833 72 52.5v102c-22 16.667 -46 29 -72 37s-55.667 12 -89 12c-43.333 0 -78.333 -10.333 -105 -31s-40 -47.667 -40 -81zM321.999 591.003l-88 83l-88 -83
h-37l99 115h52l99 -115h-37z" />
    <glyph glyph-name="atilde" unicode="&#xe3;" horiz-adv-x="494" 
d="M216 -10c-36 0 -67.667 6.16992 -95 18.5029s-48.666 29.666 -63.999 51.999s-23 48.166 -23 77.499c0 45.333 17.667 81.833 53 109.5s82.333 41.5 141 41.5s110.667 -14.333 156 -43v82c0 45.333 -12.333 79.166 -37 101.499s-60 33.5 -106 33.5
c-22.667 0 -46.334 -3.66699 -71.001 -11s-53 -19.333 -85 -36l-19 39c31.333 16 61.333 27.833 90 35.5s57.334 11.5 86.001 11.5c59.333 0 105.166 -14.167 137.499 -42.5s48.5 -69.5 48.5 -123.5v-336h-44v55c-22.667 -20.667 -48 -36.667 -76 -48s-58.667 -17 -92 -17z
M78 139.003c0 -32 13.332 -58.333 39.999 -79s60.334 -31 101.001 -31c35.333 0 66.333 6.16699 93 18.5s50.667 29.833 72 52.5v102c-22 16.667 -46 29 -72 37s-55.667 12 -89 12c-43.333 0 -78.333 -10.333 -105 -31s-40 -47.667 -40 -81zM113.999 593.003
l-37.001 6.00098c13.333 60 42 90 86 90c17.333 0 34.166 -4.83301 50.499 -14.5l48 -28.5c15.667 -9.33301 30.5 -14 44.5 -14c11.333 0 20.833 4.33301 28.5 13s13.834 23.667 18.501 45l37 -6c-6.66699 -30.667 -17.5 -53.334 -32.5 -68.001s-33.167 -22 -54.5 -22
c-16.667 0 -33.167 4.66699 -49.5 14s-32.166 18.833 -47.499 28.5s-30.333 14.5 -45 14.5c-12.667 0 -22.5 -4.33301 -29.5 -13s-12.833 -23.667 -17.5 -45z" />
    <glyph glyph-name="adieresis" unicode="&#xe4;" horiz-adv-x="494" 
d="M216 -10c-36 0 -67.667 6.16992 -95 18.5029s-48.666 29.666 -63.999 51.999s-23 48.166 -23 77.499c0 45.333 17.667 81.833 53 109.5s82.333 41.5 141 41.5s110.667 -14.333 156 -43v82c0 45.333 -12.333 79.166 -37 101.499s-60 33.5 -106 33.5
c-22.667 0 -46.334 -3.66699 -71.001 -11s-53 -19.333 -85 -36l-19 39c31.333 16 61.333 27.833 90 35.5s57.334 11.5 86.001 11.5c59.333 0 105.166 -14.167 137.499 -42.5s48.5 -69.5 48.5 -123.5v-336h-44v55c-22.667 -20.667 -48 -36.667 -76 -48s-58.667 -17 -92 -17z
M78 139.003c0 -32 13.332 -58.333 39.999 -79s60.334 -31 101.001 -31c35.333 0 66.333 6.16699 93 18.5s50.667 29.833 72 52.5v102c-22 16.667 -46 29 -72 37s-55.667 12 -89 12c-43.333 0 -78.333 -10.333 -105 -31s-40 -47.667 -40 -81zM155.999 603.003
c-10.667 0 -19.667 3.66699 -27 11s-11 16.333 -11 27s3.66699 19.667 11 27s16.333 11 27 11c11.333 0 20.5 -3.66699 27.5 -11s10.5 -16.333 10.5 -27s-3.5 -19.667 -10.5 -27s-16.167 -11 -27.5 -11zM311.999 603.003c-10.667 0 -19.667 3.66699 -27 11
s-11 16.333 -11 27s3.66699 19.667 11 27s16.333 11 27 11c11.333 0 20.5 -3.66699 27.5 -11s10.5 -16.333 10.5 -27s-3.5 -19.667 -10.5 -27s-16.167 -11 -27.5 -11z" />
    <glyph glyph-name="aring" unicode="&#xe5;" horiz-adv-x="494" 
d="M216 -10c-36 0 -67.667 6.16992 -95 18.5029s-48.666 29.666 -63.999 51.999s-23 48.166 -23 77.499c0 45.333 17.667 81.833 53 109.5s82.333 41.5 141 41.5s110.667 -14.333 156 -43v82c0 45.333 -12.333 79.166 -37 101.499s-60 33.5 -106 33.5
c-22.667 0 -46.334 -3.66699 -71.001 -11s-53 -19.333 -85 -36l-19 39c31.333 16 61.333 27.833 90 35.5s57.334 11.5 86.001 11.5c59.333 0 105.166 -14.167 137.499 -42.5s48.5 -69.5 48.5 -123.5v-336h-44v55c-22.667 -20.667 -48 -36.667 -76 -48s-58.667 -17 -92 -17z
M78 139.003c0 -32 13.332 -58.333 39.999 -79s60.334 -31 101.001 -31c35.333 0 66.333 6.16699 93 18.5s50.667 29.833 72 52.5v102c-22 16.667 -46 29 -72 37s-55.667 12 -89 12c-43.333 0 -78.333 -10.333 -105 -31s-40 -47.667 -40 -81zM233.999 581.003
c-20 0 -38.001 4.83301 -54.001 14.5s-28.667 22.667 -38 39s-14 34.166 -14 53.499s4.66699 37 14 53s22 28.833 38 38.5s34 14.5 54 14.5c20.667 0 38.834 -4.83301 54.501 -14.5s28.167 -22.5 37.5 -38.5s14 -33.667 14 -53s-4.66699 -37.166 -14 -53.499
s-22 -29.333 -38 -39s-34 -14.5 -54 -14.5zM233.998 614.003c20 0 36.998 7.16699 50.998 21.5s21 31.833 21 52.5s-7.16699 38 -21.5 52s-31.166 21 -50.499 21c-20 0 -37 -7 -51 -21s-21 -31.333 -21 -52s6.83301 -38.167 20.5 -52.5s30.834 -21.5 51.501 -21.5z" />
    <glyph glyph-name="ae" unicode="&#xe6;" horiz-adv-x="898" 
d="M221 -10c-36 0 -67.6641 6.16992 -94.9971 18.5029s-48.666 29.666 -63.999 51.999s-23 48.166 -23 77.499c0 45.333 17.667 81.833 53 109.5s82.333 41.5 141 41.5s110.667 -14 156 -42v81c0 45.333 -12.333 79.166 -37 101.499s-60 33.5 -106 33.5
c-22.667 0 -46.334 -3.66699 -71.001 -11s-53 -19.333 -85 -36l-19 39c31.333 16 61.333 27.833 90 35.5s57.334 11.5 86.001 11.5c49.333 0 89.333 -9.83301 120 -29.5s50.667 -48.167 60 -85.5c21.333 35.333 49.666 63.333 84.999 84s74.666 31 117.999 31
c42.667 0 80.667 -11.333 114 -34s59.833 -52.834 79.5 -90.501s29.5 -79.5 29.5 -125.5v-18h-419c2 -38 12.167 -72.167 30.5 -102.5s42.166 -54.5 71.499 -72.5s62 -27 98 -27c28 0 55.667 4.5 83 13.5s50.666 21.167 69.999 36.5l26 -35
c-26.667 -19.333 -55 -33.666 -85 -42.999s-61.333 -14 -94 -14c-42 0 -80.667 9.83301 -116 29.5s-64 46.167 -86 79.5c-24.667 -34.667 -55 -61.5 -91 -80.5s-76 -28.5 -120 -28.5zM436.003 276.003l370.001 -0.000976562c-3.33301 34 -13 64.833 -29 92.5
s-36.667 49.834 -62 66.501s-54 25 -86 25c-34 0 -64.833 -8 -92.5 -24s-50.334 -37.833 -68.001 -65.5s-28.5 -59.167 -32.5 -94.5zM224.004 29.002c41.333 0 77.333 9 108 27s58 43 82 75c-4.66699 10.667 -8.83398 21.5 -12.501 32.5s-6.5 22.5 -8.5 34.5
c-22.667 18 -47.167 31.333 -73.5 40s-56.833 13 -91.5 13c-43.333 0 -78.333 -10.333 -105 -31s-40 -47.667 -40 -81c0 -32 13.333 -58.333 40 -79s60.334 -31 101.001 -31z" />
    <glyph glyph-name="ccedilla" unicode="&#xe7;" horiz-adv-x="504" 
d="M280 -224c-44.667 0 -80.6641 12.6641 -107.997 37.9971l23 25c27.333 -21.333 55.666 -32 84.999 -32c21.333 0 38.166 4.83301 50.499 14.5s18.5 22.834 18.5 39.501c0 15.333 -6.66699 27.5 -20 36.5s-32 13.5 -56 13.5h-23l21 80c-42.667 3.33301 -81 16.5 -115 39.5
s-61 53.333 -81 91s-30 79.167 -30 124.5c0 48 10.833 91.333 32.5 130s51.167 69.334 88.5 92.001s78.666 34 123.999 34c33.333 0 66.833 -6.66699 100.5 -20s63.167 -31.666 88.5 -54.999l-30 -36c-21.333 21.333 -45.833 38.166 -73.5 50.499s-56.167 18.5 -85.5 18.5
c-37.333 0 -71.166 -9.5 -101.499 -28.5s-54.333 -44.667 -72 -77s-26.5 -68.5 -26.5 -108.5s8.83301 -76.167 26.5 -108.5s41.667 -58 72 -77s64.166 -28.5 101.499 -28.5c29.333 0 57.833 6.33301 85.5 19s52.167 29.334 73.5 50.001l30 -36
c-23.333 -22 -50.5 -39.5 -81.5 -52.5s-62.167 -20.5 -93.5 -22.5l-13 -50c28.667 -0.666992 51.667 -8 69 -22s26 -32.667 26 -56c0 -25.333 -9.83301 -46 -29.5 -62s-45.167 -24 -76.5 -24z" />
    <glyph glyph-name="egrave" unicode="&#xe8;" horiz-adv-x="549" 
d="M290 -10c-45.333 0 -86.666 11.3311 -123.999 33.998s-66.833 53.334 -88.5 92.001s-32.5 82 -32.5 130s10.5 91.333 31.5 130s49.833 69.334 86.5 92.001s77.667 34 123 34c42.667 0 80.667 -11.333 114 -34s59.833 -52.834 79.5 -90.501s29.5 -79.5 29.5 -125.5v-18
h-419c2 -38 12 -72.167 30 -102.5s41.833 -54.5 71.5 -72.5s62.5 -27 98.5 -27c28 0 55.667 4.5 83 13.5s50.666 21.167 69.999 36.5l26 -35c-26.667 -19.333 -55 -33.666 -85 -42.999s-61.333 -14 -94 -14zM92 275.998l370.001 -0.000976562
c-3.33301 34 -13 64.833 -29 92.5s-36.667 49.834 -62 66.501s-54 25 -86 25c-34 0 -64.833 -8 -92.5 -24s-50.334 -37.833 -68.001 -65.5s-28.5 -59.167 -32.5 -94.5zM272.001 595.997l-118 110h68l94 -110h-44z" />
    <glyph glyph-name="eacute" unicode="&#xe9;" horiz-adv-x="549" 
d="M290 -10c-45.333 0 -86.666 11.3311 -123.999 33.998s-66.833 53.334 -88.5 92.001s-32.5 82 -32.5 130s10.5 91.333 31.5 130s49.833 69.334 86.5 92.001s77.667 34 123 34c42.667 0 80.667 -11.333 114 -34s59.833 -52.834 79.5 -90.501s29.5 -79.5 29.5 -125.5v-18
h-419c2 -38 12 -72.167 30 -102.5s41.833 -54.5 71.5 -72.5s62.5 -27 98.5 -27c28 0 55.667 4.5 83 13.5s50.666 21.167 69.999 36.5l26 -35c-26.667 -19.333 -55 -33.666 -85 -42.999s-61.333 -14 -94 -14zM92 275.998l370.001 -0.000976562
c-3.33301 34 -13 64.833 -29 92.5s-36.667 49.834 -62 66.501s-54 25 -86 25c-34 0 -64.833 -8 -92.5 -24s-50.334 -37.833 -68.001 -65.5s-28.5 -59.167 -32.5 -94.5zM246.001 595.997l96 110h67l-119 -110h-44z" />
    <glyph glyph-name="ecircumflex" unicode="&#xea;" horiz-adv-x="549" 
d="M290 -10c-45.333 0 -86.666 11.3311 -123.999 33.998s-66.833 53.334 -88.5 92.001s-32.5 82 -32.5 130s10.5 91.333 31.5 130s49.833 69.334 86.5 92.001s77.667 34 123 34c42.667 0 80.667 -11.333 114 -34s59.833 -52.834 79.5 -90.501s29.5 -79.5 29.5 -125.5v-18
h-419c2 -38 12 -72.167 30 -102.5s41.833 -54.5 71.5 -72.5s62.5 -27 98.5 -27c28 0 55.667 4.5 83 13.5s50.666 21.167 69.999 36.5l26 -35c-26.667 -19.333 -55 -33.666 -85 -42.999s-61.333 -14 -94 -14zM92 275.998l370.001 -0.000976562
c-3.33301 34 -13 64.833 -29 92.5s-36.667 49.834 -62 66.501s-54 25 -86 25c-34 0 -64.833 -8 -92.5 -24s-50.334 -37.833 -68.001 -65.5s-28.5 -59.167 -32.5 -94.5zM369.001 590.997l-88 83l-88 -83h-37l99 115h52l99 -115h-37z" />
    <glyph glyph-name="edieresis" unicode="&#xeb;" horiz-adv-x="549" 
d="M290 -10c-45.333 0 -86.666 11.3311 -123.999 33.998s-66.833 53.334 -88.5 92.001s-32.5 82 -32.5 130s10.5 91.333 31.5 130s49.833 69.334 86.5 92.001s77.667 34 123 34c42.667 0 80.667 -11.333 114 -34s59.833 -52.834 79.5 -90.501s29.5 -79.5 29.5 -125.5v-18
h-419c2 -38 12 -72.167 30 -102.5s41.833 -54.5 71.5 -72.5s62.5 -27 98.5 -27c28 0 55.667 4.5 83 13.5s50.666 21.167 69.999 36.5l26 -35c-26.667 -19.333 -55 -33.666 -85 -42.999s-61.333 -14 -94 -14zM92 275.998l370.001 -0.000976562
c-3.33301 34 -13 64.833 -29 92.5s-36.667 49.834 -62 66.501s-54 25 -86 25c-34 0 -64.833 -8 -92.5 -24s-50.334 -37.833 -68.001 -65.5s-28.5 -59.167 -32.5 -94.5zM203.001 602.997c-10.667 0 -19.667 3.66699 -27 11s-11 16.333 -11 27s3.66699 19.667 11 27
s16.333 11 27 11c11.333 0 20.5 -3.66699 27.5 -11s10.5 -16.333 10.5 -27s-3.5 -19.667 -10.5 -27s-16.167 -11 -27.5 -11zM359.001 602.997c-10.667 0 -19.667 3.66699 -27 11s-11 16.333 -11 27s3.66699 19.667 11 27s16.333 11 27 11c11.333 0 20.5 -3.66699 27.5 -11
s10.5 -16.333 10.5 -27s-3.5 -19.667 -10.5 -27s-16.167 -11 -27.5 -11z" />
    <glyph glyph-name="igrave" unicode="&#xec;" horiz-adv-x="180" 
d="M68 0v492h44v-492h-44zM77 596l-118 110h68l94 -110h-44z" />
    <glyph glyph-name="iacute" unicode="&#xed;" horiz-adv-x="180" 
d="M68 0v492h44v-492h-44zM51 596l96 110h67l-119 -110h-44z" />
    <glyph glyph-name="icircumflex" unicode="&#xee;" horiz-adv-x="180" 
d="M68 0v492h44v-492h-44zM174 591l-88 83l-88 -83h-37l99 115h52l99 -115h-37z" />
    <glyph glyph-name="idieresis" unicode="&#xef;" horiz-adv-x="180" 
d="M68 0v492h44v-492h-44zM8 603c-10.667 0 -19.667 3.66699 -27 11s-11 16.333 -11 27s3.66699 19.667 11 27s16.333 11 27 11c11.333 0 20.5 -3.66699 27.5 -11s10.5 -16.333 10.5 -27s-3.5 -19.667 -10.5 -27s-16.167 -11 -27.5 -11zM164 603
c-10.667 0 -19.667 3.66699 -27 11s-11 16.333 -11 27s3.66699 19.667 11 27s16.333 11 27 11c11.333 0 20.5 -3.66699 27.5 -11s10.5 -16.333 10.5 -27s-3.5 -19.667 -10.5 -27s-16.167 -11 -27.5 -11z" />
    <glyph glyph-name="eth" unicode="&#xf0;" horiz-adv-x="588" 
d="M290 -10c-45.333 0 -86.668 11.3359 -124.001 34.0029s-66.833 53.334 -88.5 92.001s-32.5 82 -32.5 130c0 35.333 6.16699 68.166 18.5 98.499s29.5 56.666 51.5 78.999s48 39.666 78 51.999s62.333 18.5 97 18.5c44 0 84 -11 120 -33s64 -51.667 84 -89
c-6.66699 47.333 -19.667 90.5 -39 129.5s-44.666 72.5 -75.999 100.5l-109 -67l-21 34l97 60c-17.333 11.333 -36 21.5 -56 30.5s-41.667 16.167 -65 21.5l13 36c28 -6.66699 54 -15.5 78 -26.5s46 -24.167 66 -39.5l115 71l22 -34l-104 -64
c41.333 -38.667 72.5 -86.834 93.5 -144.501s31.5 -123.167 31.5 -196.5c0 -58.667 -10.5 -110 -31.5 -154s-50.333 -78.167 -88 -102.5s-81.167 -36.5 -130.5 -36.5zM290.998 32.0029c38 0 72.167 9.16699 102.5 27.5s54.333 43.5 72 75.5s26.5 67.667 26.5 107
c0 40 -8.83301 75.833 -26.5 107.5s-41.667 56.667 -72 75s-64.5 27.5 -102.5 27.5c-37.333 0 -71.333 -9.16699 -102 -27.5s-54.834 -43.333 -72.501 -75s-26.5 -67.5 -26.5 -107.5c0 -39.333 8.83301 -75 26.5 -107s41.834 -57.167 72.501 -75.5s64.667 -27.5 102 -27.5z
" />
    <glyph glyph-name="ntilde" unicode="&#xf1;" horiz-adv-x="529" 
d="M68 0l0.000976562 492h44v-69c40 52.667 94.333 79 163 79c37.333 0 70.166 -7.83301 98.499 -23.5s50.333 -37.667 66 -66s23.5 -61.166 23.5 -98.499v-314h-44v302c0 49.333 -13.667 88.166 -41 116.499s-65 42.5 -113 42.5c-33.333 0 -63.333 -7.83301 -90 -23.5
s-47.667 -38.167 -63 -67.5v-370h-44zM146.001 593l-37.001 6.00098c13.333 60 42 90 86 90c17.333 0 34.166 -4.83301 50.499 -14.5l48 -28.5c15.667 -9.33301 30.5 -14 44.5 -14c11.333 0 20.833 4.33301 28.5 13s13.834 23.667 18.501 45l37 -6
c-6.66699 -30.667 -17.5 -53.334 -32.5 -68.001s-33.167 -22 -54.5 -22c-16.667 0 -33.167 4.66699 -49.5 14s-32.166 18.833 -47.499 28.5s-30.333 14.5 -45 14.5c-12.667 0 -22.5 -4.33301 -29.5 -13s-12.833 -23.667 -17.5 -45z" />
    <glyph glyph-name="ograve" unicode="&#xf2;" horiz-adv-x="580" 
d="M290 -10c-45.333 0 -86.666 11.333 -123.999 34s-66.833 53.5 -88.5 92.5s-32.5 82.167 -32.5 129.5c0 48 10.833 91.333 32.5 130s51.167 69.334 88.5 92.001s78.666 34 123.999 34c46 0 87.5 -11.333 124.5 -34s66.333 -53.334 88 -92.001s32.5 -82 32.5 -130
c0 -47.333 -10.833 -90.5 -32.5 -129.5s-51 -69.833 -88 -92.5s-78.5 -34 -124.5 -34zM290 32c37.333 0 71.166 9.5 101.499 28.5s54.333 44.667 72 77s26.5 68.5 26.5 108.5s-8.83301 76.167 -26.5 108.5s-41.667 58 -72 77s-64.166 28.5 -101.499 28.5
s-71.166 -9.5 -101.499 -28.5s-54.333 -44.667 -72 -77s-26.5 -68.5 -26.5 -108.5s8.83301 -76.167 26.5 -108.5s41.667 -58 72 -77s64.166 -28.5 101.499 -28.5zM281 596l-118 110h68l94 -110h-44z" />
    <glyph glyph-name="oacute" unicode="&#xf3;" horiz-adv-x="580" 
d="M290 -10c-45.333 0 -86.666 11.333 -123.999 34s-66.833 53.5 -88.5 92.5s-32.5 82.167 -32.5 129.5c0 48 10.833 91.333 32.5 130s51.167 69.334 88.5 92.001s78.666 34 123.999 34c46 0 87.5 -11.333 124.5 -34s66.333 -53.334 88 -92.001s32.5 -82 32.5 -130
c0 -47.333 -10.833 -90.5 -32.5 -129.5s-51 -69.833 -88 -92.5s-78.5 -34 -124.5 -34zM290 32c37.333 0 71.166 9.5 101.499 28.5s54.333 44.667 72 77s26.5 68.5 26.5 108.5s-8.83301 76.167 -26.5 108.5s-41.667 58 -72 77s-64.166 28.5 -101.499 28.5
s-71.166 -9.5 -101.499 -28.5s-54.333 -44.667 -72 -77s-26.5 -68.5 -26.5 -108.5s8.83301 -76.167 26.5 -108.5s41.667 -58 72 -77s64.166 -28.5 101.499 -28.5zM255 596l96 110h67l-119 -110h-44z" />
    <glyph glyph-name="ocircumflex" unicode="&#xf4;" horiz-adv-x="580" 
d="M290 -10c-45.333 0 -86.666 11.333 -123.999 34s-66.833 53.5 -88.5 92.5s-32.5 82.167 -32.5 129.5c0 48 10.833 91.333 32.5 130s51.167 69.334 88.5 92.001s78.666 34 123.999 34c46 0 87.5 -11.333 124.5 -34s66.333 -53.334 88 -92.001s32.5 -82 32.5 -130
c0 -47.333 -10.833 -90.5 -32.5 -129.5s-51 -69.833 -88 -92.5s-78.5 -34 -124.5 -34zM290 32c37.333 0 71.166 9.5 101.499 28.5s54.333 44.667 72 77s26.5 68.5 26.5 108.5s-8.83301 76.167 -26.5 108.5s-41.667 58 -72 77s-64.166 28.5 -101.499 28.5
s-71.166 -9.5 -101.499 -28.5s-54.333 -44.667 -72 -77s-26.5 -68.5 -26.5 -108.5s8.83301 -76.167 26.5 -108.5s41.667 -58 72 -77s64.166 -28.5 101.499 -28.5zM378 591l-88 83l-88 -83h-37l99 115h52l99 -115h-37z" />
    <glyph glyph-name="otilde" unicode="&#xf5;" horiz-adv-x="580" 
d="M290 -10c-45.333 0 -86.666 11.333 -123.999 34s-66.833 53.5 -88.5 92.5s-32.5 82.167 -32.5 129.5c0 48 10.833 91.333 32.5 130s51.167 69.334 88.5 92.001s78.666 34 123.999 34c46 0 87.5 -11.333 124.5 -34s66.333 -53.334 88 -92.001s32.5 -82 32.5 -130
c0 -47.333 -10.833 -90.5 -32.5 -129.5s-51 -69.833 -88 -92.5s-78.5 -34 -124.5 -34zM290 32c37.333 0 71.166 9.5 101.499 28.5s54.333 44.667 72 77s26.5 68.5 26.5 108.5s-8.83301 76.167 -26.5 108.5s-41.667 58 -72 77s-64.166 28.5 -101.499 28.5
s-71.166 -9.5 -101.499 -28.5s-54.333 -44.667 -72 -77s-26.5 -68.5 -26.5 -108.5s8.83301 -76.167 26.5 -108.5s41.667 -58 72 -77s64.166 -28.5 101.499 -28.5zM170 593l-37.001 6.00098c13.333 60 42 90 86 90c17.333 0 34.166 -4.83301 50.499 -14.5l48 -28.5
c15.667 -9.33301 30.5 -14 44.5 -14c11.333 0 20.833 4.33301 28.5 13s13.834 23.667 18.501 45l37 -6c-6.66699 -30.667 -17.5 -53.334 -32.5 -68.001s-33.167 -22 -54.5 -22c-16.667 0 -33.167 4.66699 -49.5 14s-32.166 18.833 -47.499 28.5s-30.333 14.5 -45 14.5
c-12.667 0 -22.5 -4.33301 -29.5 -13s-12.833 -23.667 -17.5 -45z" />
    <glyph glyph-name="odieresis" unicode="&#xf6;" horiz-adv-x="580" 
d="M290 -10c-45.333 0 -86.666 11.333 -123.999 34s-66.833 53.5 -88.5 92.5s-32.5 82.167 -32.5 129.5c0 48 10.833 91.333 32.5 130s51.167 69.334 88.5 92.001s78.666 34 123.999 34c46 0 87.5 -11.333 124.5 -34s66.333 -53.334 88 -92.001s32.5 -82 32.5 -130
c0 -47.333 -10.833 -90.5 -32.5 -129.5s-51 -69.833 -88 -92.5s-78.5 -34 -124.5 -34zM290 32c37.333 0 71.166 9.5 101.499 28.5s54.333 44.667 72 77s26.5 68.5 26.5 108.5s-8.83301 76.167 -26.5 108.5s-41.667 58 -72 77s-64.166 28.5 -101.499 28.5
s-71.166 -9.5 -101.499 -28.5s-54.333 -44.667 -72 -77s-26.5 -68.5 -26.5 -108.5s8.83301 -76.167 26.5 -108.5s41.667 -58 72 -77s64.166 -28.5 101.499 -28.5zM212 603c-10.667 0 -19.667 3.66699 -27 11s-11 16.333 -11 27s3.66699 19.667 11 27s16.333 11 27 11
c11.333 0 20.5 -3.66699 27.5 -11s10.5 -16.333 10.5 -27s-3.5 -19.667 -10.5 -27s-16.167 -11 -27.5 -11zM368 603c-10.667 0 -19.667 3.66699 -27 11s-11 16.333 -11 27s3.66699 19.667 11 27s16.333 11 27 11c11.333 0 20.5 -3.66699 27.5 -11s10.5 -16.333 10.5 -27
s-3.5 -19.667 -10.5 -27s-16.167 -11 -27.5 -11z" />
    <glyph glyph-name="divide" unicode="&#xf7;" 
d="M300 492c-10.667 0 -19.667 3.66699 -27 11s-11 16.333 -11 27s3.66699 19.667 11 27s16.333 11 27 11c11.333 0 20.5 -3.66699 27.5 -11s10.5 -16.333 10.5 -27s-3.5 -19.667 -10.5 -27s-16.167 -11 -27.5 -11zM300 147c-10.667 0 -19.667 3.66699 -27 11
s-11 16.333 -11 27s3.66699 19.667 11 27s16.333 11 27 11c11.333 0 20.5 -3.66699 27.5 -11s10.5 -16.333 10.5 -27s-3.5 -19.667 -10.5 -27s-16.167 -11 -27.5 -11zM111 337v41h377v-41h-377z" />
    <glyph glyph-name="oslash" unicode="&#xf8;" horiz-adv-x="580" 
d="M290 -10c-27.333 0 -53.332 4.33105 -77.999 12.998s-47 20.667 -67 36l-32 -39h-55l56 67c-21.333 23.333 -38.166 50.333 -50.499 81s-18.5 63.334 -18.5 98.001c0 48 10.833 91.333 32.5 130s51.167 69.334 88.5 92.001s78.666 34 123.999 34
c27.333 0 53.333 -4.16699 78 -12.5s47 -20.166 67 -35.499l32 38h55l-56 -67c21.333 -22.667 38.166 -49.334 50.499 -80.001s18.5 -63.667 18.5 -99c0 -47.333 -10.833 -90.5 -32.5 -129.5s-51 -69.833 -88 -92.5s-78.5 -34 -124.5 -34zM142.001 100.998l264.999 318.999
c-16 12.667 -34 22.5 -54 29.5s-41 10.5 -63 10.5c-37.333 0 -71.166 -9.5 -101.499 -28.5s-54.333 -44.667 -72 -77s-26.5 -68.5 -26.5 -108.5c0 -28.667 4.66699 -55.167 14 -79.5s22 -46.166 38 -65.499zM290 31.9971c37.333 0 71.167 9.49805 101.5 28.498
s54.333 44.667 72 77s26.5 68.5 26.5 108.5c0 28.667 -4.66699 55.334 -14 80.001s-22 46.334 -38 65.001l-265 -319c16 -12.667 34 -22.5 54 -29.5s41 -10.5 63 -10.5z" />
    <glyph glyph-name="ugrave" unicode="&#xf9;" horiz-adv-x="529" 
d="M254 -10c-36.667 0 -69.167 7.83496 -97.5 23.502s-50.5 37.667 -66.5 66s-24 61.166 -24 98.499v314h44v-302c0 -48.667 13.667 -87.334 41 -116.001s65 -43 113 -43c33.333 0 63.333 8 90 24s47.667 38.333 63 67v370h44v-492h-44v68c-38.667 -52 -93 -78 -163 -78z
M255 596.002l-118 110h68l94 -110h-44z" />
    <glyph glyph-name="uacute" unicode="&#xfa;" horiz-adv-x="529" 
d="M254 -10c-36.667 0 -69.167 7.83496 -97.5 23.502s-50.5 37.667 -66.5 66s-24 61.166 -24 98.499v314h44v-302c0 -48.667 13.667 -87.334 41 -116.001s65 -43 113 -43c33.333 0 63.333 8 90 24s47.667 38.333 63 67v370h44v-492h-44v68c-38.667 -52 -93 -78 -163 -78z
M229 596.002l96 110h67l-119 -110h-44z" />
    <glyph glyph-name="ucircumflex" unicode="&#xfb;" horiz-adv-x="529" 
d="M254 -10c-36.667 0 -69.167 7.83496 -97.5 23.502s-50.5 37.667 -66.5 66s-24 61.166 -24 98.499v314h44v-302c0 -48.667 13.667 -87.334 41 -116.001s65 -43 113 -43c33.333 0 63.333 8 90 24s47.667 38.333 63 67v370h44v-492h-44v68c-38.667 -52 -93 -78 -163 -78z
M352 591.002l-88 83l-88 -83h-37l99 115h52l99 -115h-37z" />
    <glyph glyph-name="udieresis" unicode="&#xfc;" horiz-adv-x="529" 
d="M254 -10c-36.667 0 -69.167 7.83496 -97.5 23.502s-50.5 37.667 -66.5 66s-24 61.166 -24 98.499v314h44v-302c0 -48.667 13.667 -87.334 41 -116.001s65 -43 113 -43c33.333 0 63.333 8 90 24s47.667 38.333 63 67v370h44v-492h-44v68c-38.667 -52 -93 -78 -163 -78z
M186 603.002c-10.667 0 -19.667 3.66699 -27 11s-11 16.333 -11 27s3.66699 19.667 11 27s16.333 11 27 11c11.333 0 20.5 -3.66699 27.5 -11s10.5 -16.333 10.5 -27s-3.5 -19.667 -10.5 -27s-16.167 -11 -27.5 -11zM342 603.002c-10.667 0 -19.667 3.66699 -27 11
s-11 16.333 -11 27s3.66699 19.667 11 27s16.333 11 27 11c11.333 0 20.5 -3.66699 27.5 -11s10.5 -16.333 10.5 -27s-3.5 -19.667 -10.5 -27s-16.167 -11 -27.5 -11z" />
    <glyph glyph-name="yacute" unicode="&#xfd;" horiz-adv-x="479" 
d="M75 -212c-7.33301 0 -14.667 0.500977 -22 1.50098l-19 2.5v44c10.667 -2.66699 23.667 -4 39 -4c42 0 75 26.667 99 80l40 90l-205 490h50l179 -437l187 437h49l-256 -584c-12.667 -28.667 -25.834 -51.834 -39.501 -69.501s-28.667 -30.5 -45 -38.5
s-35.166 -12 -56.499 -12zM205.999 596.001l96 110h67l-119 -110h-44z" />
    <glyph glyph-name="thorn" unicode="&#xfe;" horiz-adv-x="571" 
d="M68 -204v904l44 11v-278c44.667 46 101 69 169 69c46 0.666992 87.5 -10.5 124.5 -33.5s66.333 -53.833 88 -92.5s32.5 -82 32.5 -130c0 -47.333 -10.833 -90.5 -32.5 -129.5s-51 -69.833 -88 -92.5s-78.5 -34 -124.5 -34c-31.333 0 -61.5 6.16699 -90.5 18.5
s-55.167 28.833 -78.5 49.5v-262h-44zM281 460c-36.667 0 -69.832 -7.5 -99.499 -22.5s-52.834 -34.833 -69.501 -59.5v-264c17.333 -23.333 41 -42.833 71 -58.5s62.667 -23.5 98 -23.5c37.333 0 71.166 9.5 101.499 28.5s54.333 44.667 72 77s26.5 68.5 26.5 108.5
s-8.83301 76.167 -26.5 108.5s-41.667 58 -72 77s-64.166 28.5 -101.499 28.5z" />
    <glyph glyph-name="ydieresis" unicode="&#xff;" horiz-adv-x="479" 
d="M75 -212c-7.33301 0 -14.667 0.500977 -22 1.50098l-19 2.5v44c10.667 -2.66699 23.667 -4 39 -4c42 0 75 26.667 99 80l40 90l-205 490h50l179 -437l187 437h49l-256 -584c-12.667 -28.667 -25.834 -51.834 -39.501 -69.501s-28.667 -30.5 -45 -38.5
s-35.166 -12 -56.499 -12zM162.999 603.001c-10.667 0 -19.667 3.66699 -27 11s-11 16.333 -11 27s3.66699 19.667 11 27s16.333 11 27 11c11.333 0 20.5 -3.66699 27.5 -11s10.5 -16.333 10.5 -27s-3.5 -19.667 -10.5 -27s-16.167 -11 -27.5 -11zM318.999 603.001
c-10.667 0 -19.667 3.66699 -27 11s-11 16.333 -11 27s3.66699 19.667 11 27s16.333 11 27 11c11.333 0 20.5 -3.66699 27.5 -11s10.5 -16.333 10.5 -27s-3.5 -19.667 -10.5 -27s-16.167 -11 -27.5 -11z" />
    <glyph glyph-name="Amacron" unicode="&#x100;" horiz-adv-x="655" 
d="M8 0l292 700h57l291 -700h-50l-97 237h-347l-98 -237h-48zM171 278h313l-156 379zM195 828v37h267v-37h-267z" />
    <glyph glyph-name="amacron" unicode="&#x101;" horiz-adv-x="494" 
d="M216 -10c-36 0 -67.667 6.16992 -95 18.5029s-48.666 29.666 -63.999 51.999s-23 48.166 -23 77.499c0 45.333 17.667 81.833 53 109.5s82.333 41.5 141 41.5s110.667 -14.333 156 -43v82c0 45.333 -12.333 79.166 -37 101.499s-60 33.5 -106 33.5
c-22.667 0 -46.334 -3.66699 -71.001 -11s-53 -19.333 -85 -36l-19 39c31.333 16 61.333 27.833 90 35.5s57.334 11.5 86.001 11.5c59.333 0 105.166 -14.167 137.499 -42.5s48.5 -69.5 48.5 -123.5v-336h-44v55c-22.667 -20.667 -48 -36.667 -76 -48s-58.667 -17 -92 -17z
M78 139.003c0 -32 13.332 -58.333 39.999 -79s60.334 -31 101.001 -31c35.333 0 66.333 6.16699 93 18.5s50.667 29.833 72 52.5v102c-22 16.667 -46 29 -72 37s-55.667 12 -89 12c-43.333 0 -78.333 -10.333 -105 -31s-40 -47.667 -40 -81zM100.999 620.003v37h267v-37
h-267z" />
    <glyph glyph-name="Abreve" unicode="&#x102;" horiz-adv-x="655" 
d="M8 0l292 700h57l291 -700h-50l-97 237h-347l-98 -237h-48zM171 278h313l-156 379zM328 796c-37.333 0 -68.6699 10.666 -94.0029 31.999s-42 50 -50 86l37 8c14.667 -60 50.334 -90 107.001 -90c27.333 0 50.333 7.83301 69 23.5s31.334 37.834 38.001 66.501l37 -8
c-7.33301 -36 -23.666 -64.667 -48.999 -86s-57 -32 -95 -32z" />
    <glyph glyph-name="abreve" unicode="&#x103;" horiz-adv-x="494" 
d="M216 -10c-36 0 -67.667 6.16992 -95 18.5029s-48.666 29.666 -63.999 51.999s-23 48.166 -23 77.499c0 45.333 17.667 81.833 53 109.5s82.333 41.5 141 41.5s110.667 -14.333 156 -43v82c0 45.333 -12.333 79.166 -37 101.499s-60 33.5 -106 33.5
c-22.667 0 -46.334 -3.66699 -71.001 -11s-53 -19.333 -85 -36l-19 39c31.333 16 61.333 27.833 90 35.5s57.334 11.5 86.001 11.5c59.333 0 105.166 -14.167 137.499 -42.5s48.5 -69.5 48.5 -123.5v-336h-44v55c-22.667 -20.667 -48 -36.667 -76 -48s-58.667 -17 -92 -17z
M78 139.003c0 -32 13.332 -58.333 39.999 -79s60.334 -31 101.001 -31c35.333 0 66.333 6.16699 93 18.5s50.667 29.833 72 52.5v102c-22 16.667 -46 29 -72 37s-55.667 12 -89 12c-43.333 0 -78.333 -10.333 -105 -31s-40 -47.667 -40 -81zM233.999 588.003
c-37.333 0 -68.6699 10.666 -94.0029 31.999s-42 50 -50 86l37 8c14.667 -60 50.334 -90 107.001 -90c27.333 0 50.333 7.83301 69 23.5s31.334 37.834 38.001 66.501l37 -8c-7.33301 -36 -23.666 -64.667 -48.999 -86s-57 -32 -95 -32z" />
    <glyph glyph-name="Aogonek" unicode="&#x104;" horiz-adv-x="655" 
d="M593 -221c-30.667 0 -54.333 7.99902 -71 23.999s-25 35.667 -25 59c0 22 7.66699 43.833 23 65.5s41.666 45.834 78.999 72.501h-1l-97 237h-347l-98 -237h-48l292 700h57l291 -700c-42.667 -27.333 -72 -51.333 -88 -72s-24 -40.334 -24 -59.001
s5.66699 -32.667 17 -42s26.333 -14 45 -14c9.33301 0 18.333 1.33301 27 4s16.667 6.33398 24 11.001l13 -29c-10 -6.66699 -20.667 -11.667 -32 -15s-23.666 -5 -36.999 -5zM171.001 277.999h313l-156 379z" />
    <glyph glyph-name="aogonek" unicode="&#x105;" horiz-adv-x="494" 
d="M373 -221c-30.667 0 -54.335 8.00195 -71.002 24.002s-25 35.667 -25 59c0 22 8.33301 44.833 25 68.5s44.334 46.834 83.001 69.501h-1v55c-22.667 -20.667 -48 -36.667 -76 -48s-58.667 -17 -92 -17c-36 0 -67.667 6.16699 -95 18.5s-48.666 29.666 -63.999 51.999
s-23 48.166 -23 77.499c0 45.333 17.667 81.833 53 109.5s82.333 41.5 141 41.5s110.667 -14.333 156 -43v82c0 45.333 -12.333 79.166 -37 101.499s-60 33.5 -106 33.5c-22.667 0 -46.334 -3.66699 -71.001 -11s-53 -19.333 -85 -36l-19 39
c31.333 16 61.333 27.833 90 35.5s57.334 11.5 86.001 11.5c59.333 0 105.166 -14.167 137.499 -42.5s48.5 -69.5 48.5 -123.5v-336c-42.667 -27.333 -72 -51.333 -88 -72s-24 -40.334 -24 -59.001s5.66699 -32.667 17 -42s26.333 -14 45 -14c9.33301 0 18.333 1.33301 27 4
s16.667 6.33398 24 11.001l13 -29c-10 -6.66699 -20.667 -11.667 -32 -15s-23.666 -5 -36.999 -5zM218.999 29.002c35.333 0 66.332 6.16699 92.999 18.5s50.667 29.833 72 52.5v102c-22 16.667 -46 29 -72 37s-55.667 12 -89 12c-43.333 0 -78.333 -10.333 -105 -31
s-40 -47.667 -40 -81c0 -32 13.333 -58.333 40 -79s60.334 -31 101.001 -31z" />
    <glyph glyph-name="Cacute" unicode="&#x106;" horiz-adv-x="724" 
d="M407 -11c-50.667 0 -97.834 9.33301 -141.501 28s-81.667 44.5 -114 77.5s-57.666 71.333 -75.999 115s-27.5 90.5 -27.5 140.5s9.16699 96.833 27.5 140.5s43.666 82 75.999 115s70.333 58.833 114 77.5s90.834 28 141.501 28c34.667 0 68.167 -4 100.5 -12
s62.833 -20 91.5 -36s54.667 -36 78 -60l-30 -35c-28.667 31.333 -64.5 55.833 -107.5 73.5s-87.167 26.5 -132.5 26.5c-44.667 0 -85.834 -8.16699 -123.501 -24.5s-70.667 -39 -99 -68s-50.333 -62.667 -66 -101s-23.5 -79.833 -23.5 -124.5s7.83301 -86.167 23.5 -124.5
s37.667 -72 66 -101s61.333 -51.667 99 -68s78.834 -24.5 123.501 -24.5c45.333 0 89.5 9 132.5 27s78.833 42.333 107.5 73l30 -35c-23.333 -24 -49.333 -44 -78 -60s-59.167 -28 -91.5 -36s-65.833 -12 -100.5 -12zM367 804l96 110h67l-119 -110h-44z" />
    <glyph glyph-name="cacute" unicode="&#x107;" horiz-adv-x="504" 
d="M290 -10c-45.333 0 -86.666 11.3291 -123.999 33.9961s-66.833 53.334 -88.5 92.001s-32.5 82 -32.5 130s10.833 91.333 32.5 130s51.167 69.334 88.5 92.001s78.666 34 123.999 34c33.333 0 66.833 -6.66699 100.5 -20s63.167 -31.666 88.5 -54.999l-30 -36
c-21.333 21.333 -45.833 38.166 -73.5 50.499s-56.167 18.5 -85.5 18.5c-37.333 0 -71.166 -9.5 -101.499 -28.5s-54.333 -44.667 -72 -77s-26.5 -68.5 -26.5 -108.5s8.83301 -76.167 26.5 -108.5s41.667 -58 72 -77s64.166 -28.5 101.499 -28.5
c29.333 0 57.833 6.33301 85.5 19s52.167 29.334 73.5 50.001l30 -36c-25.333 -23.333 -54.833 -41.666 -88.5 -54.999s-67.167 -20 -100.5 -20zM255 595.996l96 110h67l-119 -110h-44z" />
    <glyph glyph-name="Ccircumflex" unicode="&#x108;" horiz-adv-x="724" 
d="M407 -11c-50.667 0 -97.834 9.33301 -141.501 28s-81.667 44.5 -114 77.5s-57.666 71.333 -75.999 115s-27.5 90.5 -27.5 140.5s9.16699 96.833 27.5 140.5s43.666 82 75.999 115s70.333 58.833 114 77.5s90.834 28 141.501 28c34.667 0 68.167 -4 100.5 -12
s62.833 -20 91.5 -36s54.667 -36 78 -60l-30 -35c-28.667 31.333 -64.5 55.833 -107.5 73.5s-87.167 26.5 -132.5 26.5c-44.667 0 -85.834 -8.16699 -123.501 -24.5s-70.667 -39 -99 -68s-50.333 -62.667 -66 -101s-23.5 -79.833 -23.5 -124.5s7.83301 -86.167 23.5 -124.5
s37.667 -72 66 -101s61.333 -51.667 99 -68s78.834 -24.5 123.501 -24.5c45.333 0 89.5 9 132.5 27s78.833 42.333 107.5 73l30 -35c-23.333 -24 -49.333 -44 -78 -60s-59.167 -28 -91.5 -36s-65.833 -12 -100.5 -12zM490 799l-88 83l-88 -83h-37l99 115h52l99 -115h-37z
" />
    <glyph glyph-name="ccircumflex" unicode="&#x109;" horiz-adv-x="504" 
d="M290 -10c-45.333 0 -86.666 11.3291 -123.999 33.9961s-66.833 53.334 -88.5 92.001s-32.5 82 -32.5 130s10.833 91.333 32.5 130s51.167 69.334 88.5 92.001s78.666 34 123.999 34c33.333 0 66.833 -6.66699 100.5 -20s63.167 -31.666 88.5 -54.999l-30 -36
c-21.333 21.333 -45.833 38.166 -73.5 50.499s-56.167 18.5 -85.5 18.5c-37.333 0 -71.166 -9.5 -101.499 -28.5s-54.333 -44.667 -72 -77s-26.5 -68.5 -26.5 -108.5s8.83301 -76.167 26.5 -108.5s41.667 -58 72 -77s64.166 -28.5 101.499 -28.5
c29.333 0 57.833 6.33301 85.5 19s52.167 29.334 73.5 50.001l30 -36c-25.333 -23.333 -54.833 -41.666 -88.5 -54.999s-67.167 -20 -100.5 -20zM378 590.996l-88 83l-88 -83h-37l99 115h52l99 -115h-37z" />
    <glyph glyph-name="Cdotaccent" unicode="&#x10a;" horiz-adv-x="724" 
d="M407 -11c-50.667 0 -97.834 9.33301 -141.501 28s-81.667 44.5 -114 77.5s-57.666 71.333 -75.999 115s-27.5 90.5 -27.5 140.5s9.16699 96.833 27.5 140.5s43.666 82 75.999 115s70.333 58.833 114 77.5s90.834 28 141.501 28c34.667 0 68.167 -4 100.5 -12
s62.833 -20 91.5 -36s54.667 -36 78 -60l-30 -35c-28.667 31.333 -64.5 55.833 -107.5 73.5s-87.167 26.5 -132.5 26.5c-44.667 0 -85.834 -8.16699 -123.501 -24.5s-70.667 -39 -99 -68s-50.333 -62.667 -66 -101s-23.5 -79.833 -23.5 -124.5s7.83301 -86.167 23.5 -124.5
s37.667 -72 66 -101s61.333 -51.667 99 -68s78.834 -24.5 123.501 -24.5c45.333 0 89.5 9 132.5 27s78.833 42.333 107.5 73l30 -35c-23.333 -24 -49.333 -44 -78 -60s-59.167 -28 -91.5 -36s-65.833 -12 -100.5 -12zM402 811c-10.667 0 -19.667 3.66699 -27 11
s-11 16.333 -11 27s3.66699 19.667 11 27s16.333 11 27 11c11.333 0 20.5 -3.66699 27.5 -11s10.5 -16.333 10.5 -27s-3.5 -19.667 -10.5 -27s-16.167 -11 -27.5 -11z" />
    <glyph glyph-name="cdotaccent" unicode="&#x10b;" horiz-adv-x="504" 
d="M290 -10c-45.333 0 -86.666 11.3291 -123.999 33.9961s-66.833 53.334 -88.5 92.001s-32.5 82 -32.5 130s10.833 91.333 32.5 130s51.167 69.334 88.5 92.001s78.666 34 123.999 34c33.333 0 66.833 -6.66699 100.5 -20s63.167 -31.666 88.5 -54.999l-30 -36
c-21.333 21.333 -45.833 38.166 -73.5 50.499s-56.167 18.5 -85.5 18.5c-37.333 0 -71.166 -9.5 -101.499 -28.5s-54.333 -44.667 -72 -77s-26.5 -68.5 -26.5 -108.5s8.83301 -76.167 26.5 -108.5s41.667 -58 72 -77s64.166 -28.5 101.499 -28.5
c29.333 0 57.833 6.33301 85.5 19s52.167 29.334 73.5 50.001l30 -36c-25.333 -23.333 -54.833 -41.666 -88.5 -54.999s-67.167 -20 -100.5 -20zM290 602.996c-10.667 0 -19.667 3.66699 -27 11s-11 16.333 -11 27s3.66699 19.667 11 27s16.333 11 27 11
c11.333 0 20.5 -3.66699 27.5 -11s10.5 -16.333 10.5 -27s-3.5 -19.667 -10.5 -27s-16.167 -11 -27.5 -11z" />
    <glyph glyph-name="Ccaron" unicode="&#x10c;" horiz-adv-x="724" 
d="M407 -11c-50.667 0 -97.834 9.33301 -141.501 28s-81.667 44.5 -114 77.5s-57.666 71.333 -75.999 115s-27.5 90.5 -27.5 140.5s9.16699 96.833 27.5 140.5s43.666 82 75.999 115s70.333 58.833 114 77.5s90.834 28 141.501 28c34.667 0 68.167 -4 100.5 -12
s62.833 -20 91.5 -36s54.667 -36 78 -60l-30 -35c-28.667 31.333 -64.5 55.833 -107.5 73.5s-87.167 26.5 -132.5 26.5c-44.667 0 -85.834 -8.16699 -123.501 -24.5s-70.667 -39 -99 -68s-50.333 -62.667 -66 -101s-23.5 -79.833 -23.5 -124.5s7.83301 -86.167 23.5 -124.5
s37.667 -72 66 -101s61.333 -51.667 99 -68s78.834 -24.5 123.501 -24.5c45.333 0 89.5 9 132.5 27s78.833 42.333 107.5 73l30 -35c-23.333 -24 -49.333 -44 -78 -60s-59.167 -28 -91.5 -36s-65.833 -12 -100.5 -12zM316 916l86 -83l86 83h39l-99 -114h-52l-99 114h39z" />
    <glyph glyph-name="ccaron" unicode="&#x10d;" horiz-adv-x="504" 
d="M290 -10c-45.333 0 -86.666 11.3291 -123.999 33.9961s-66.833 53.334 -88.5 92.001s-32.5 82 -32.5 130s10.833 91.333 32.5 130s51.167 69.334 88.5 92.001s78.666 34 123.999 34c33.333 0 66.833 -6.66699 100.5 -20s63.167 -31.666 88.5 -54.999l-30 -36
c-21.333 21.333 -45.833 38.166 -73.5 50.499s-56.167 18.5 -85.5 18.5c-37.333 0 -71.166 -9.5 -101.499 -28.5s-54.333 -44.667 -72 -77s-26.5 -68.5 -26.5 -108.5s8.83301 -76.167 26.5 -108.5s41.667 -58 72 -77s64.166 -28.5 101.499 -28.5
c29.333 0 57.833 6.33301 85.5 19s52.167 29.334 73.5 50.001l30 -36c-25.333 -23.333 -54.833 -41.666 -88.5 -54.999s-67.167 -20 -100.5 -20zM204 707.996l86 -83l86 83h39l-99 -114h-52l-99 114h39z" />
    <glyph glyph-name="Dcaron" unicode="&#x10e;" horiz-adv-x="713" 
d="M129 43h174c44.667 0 86.167 7.66699 124.5 23s71.666 36.833 99.999 64.5s50.5 60.167 66.5 97.5s24 78 24 122s-8 84.667 -24 122s-38.167 69.833 -66.5 97.5s-61.666 49.167 -99.999 64.5s-79.833 23 -124.5 23h-174v-614zM83 0v700h214
c55.333 0 105.5 -8.83301 150.5 -26.5s83.833 -42.167 116.5 -73.5s57.667 -68.333 75 -111s26 -89 26 -139s-8.66699 -96.333 -26 -139s-42.333 -79.667 -75 -111s-71.5 -55.833 -116.5 -73.5s-95.167 -26.5 -150.5 -26.5h-214zM270 916l86 -83l86 83h39l-99 -114h-52
l-99 114h39z" />
    <glyph glyph-name="dcaron" unicode="&#x10f;" horiz-adv-x="646" 
d="M290 -10c-45.333 0 -86.665 11.3311 -123.998 33.998s-66.833 53.334 -88.5 92.001s-32.5 82 -32.5 130s10.833 91.333 32.5 130s51.167 69.334 88.5 92.001s78.666 34 123.999 34c31.333 0 61.666 -6.16699 90.999 -18.5s55.333 -28.833 78 -49.5v266l44 11v-711h-44v59
c-44.667 -46 -101 -69 -169 -69zM290.001 31.998c36.667 0 69.832 7.5 99.499 22.5s52.834 34.833 69.501 59.5v264c-17.333 23.333 -41 42.833 -71 58.5s-62.667 23.5 -98 23.5c-37.333 0 -71.166 -9.5 -101.499 -28.5s-54.333 -44.667 -72 -77s-26.5 -68.5 -26.5 -108.5
s8.83301 -76.167 26.5 -108.5s41.667 -58 72 -77s64.166 -28.5 101.499 -28.5zM588.999 531.998l2 168l48 10l-17 -178h-33z" />
    <glyph glyph-name="Dcroat" unicode="&#x110;" horiz-adv-x="713" 
d="M83 0v334h-70v41h70v325h214c55.333 0 105.5 -8.83301 150.5 -26.5s83.833 -42.167 116.5 -73.5s57.667 -68.333 75 -111s26 -89 26 -139s-8.66699 -96.333 -26 -139s-42.333 -79.667 -75 -111s-71.5 -55.833 -116.5 -73.5s-95.167 -26.5 -150.5 -26.5h-214zM129 43h174
c44.667 0 86.167 7.66699 124.5 23s71.666 36.833 99.999 64.5s50.5 60.167 66.5 97.5s24 78 24 122s-8 84.667 -24 122s-38.167 69.833 -66.5 97.5s-61.666 49.167 -99.999 64.5s-79.833 23 -124.5 23h-174v-282h219v-41h-219v-291z" />
    <glyph glyph-name="dcroat" unicode="&#x111;" horiz-adv-x="571" 
d="M290 -10c-45.333 0 -86.665 11.3311 -123.998 33.998s-66.833 53.334 -88.5 92.001s-32.5 82 -32.5 130s10.833 91.333 32.5 130s51.167 69.334 88.5 92.001s78.666 34 123.999 34c31.333 0 61.666 -6.16699 90.999 -18.5s55.333 -28.833 78 -49.5v156h-176v37h176v73
l44 11v-84h66v-37h-66v-590h-44v59c-44.667 -46 -101 -69 -169 -69zM290.001 31.998c36.667 0 69.832 7.5 99.499 22.5s52.834 34.833 69.501 59.5v264c-17.333 23.333 -41 42.833 -71 58.5s-62.667 23.5 -98 23.5c-37.333 0 -71.166 -9.5 -101.499 -28.5
s-54.333 -44.667 -72 -77s-26.5 -68.5 -26.5 -108.5s8.83301 -76.167 26.5 -108.5s41.667 -58 72 -77s64.166 -28.5 101.499 -28.5z" />
    <glyph glyph-name="Emacron" unicode="&#x112;" horiz-adv-x="602" 
d="M83 0v700h484v-43h-438v-282h286v-43h-286v-289h442v-43h-488zM206 828v37h267v-37h-267z" />
    <glyph glyph-name="emacron" unicode="&#x113;" horiz-adv-x="549" 
d="M290 -10c-45.333 0 -86.666 11.3311 -123.999 33.998s-66.833 53.334 -88.5 92.001s-32.5 82 -32.5 130s10.5 91.333 31.5 130s49.833 69.334 86.5 92.001s77.667 34 123 34c42.667 0 80.667 -11.333 114 -34s59.833 -52.834 79.5 -90.501s29.5 -79.5 29.5 -125.5v-18
h-419c2 -38 12 -72.167 30 -102.5s41.833 -54.5 71.5 -72.5s62.5 -27 98.5 -27c28 0 55.667 4.5 83 13.5s50.666 21.167 69.999 36.5l26 -35c-26.667 -19.333 -55 -33.666 -85 -42.999s-61.333 -14 -94 -14zM92 275.998l370.001 -0.000976562
c-3.33301 34 -13 64.833 -29 92.5s-36.667 49.834 -62 66.501s-54 25 -86 25c-34 0 -64.833 -8 -92.5 -24s-50.334 -37.833 -68.001 -65.5s-28.5 -59.167 -32.5 -94.5zM148.001 619.997v37h267v-37h-267z" />
    <glyph glyph-name="Ebreve" unicode="&#x114;" horiz-adv-x="602" 
d="M83 0v700h484v-43h-438v-282h286v-43h-286v-289h442v-43h-488zM339 796c-37.333 0 -68.6699 10.666 -94.0029 31.999s-42 50 -50 86l37 8c14.667 -60 50.334 -90 107.001 -90c27.333 0 50.333 7.83301 69 23.5s31.334 37.834 38.001 66.501l37 -8
c-7.33301 -36 -23.666 -64.667 -48.999 -86s-57 -32 -95 -32z" />
    <glyph glyph-name="ebreve" unicode="&#x115;" horiz-adv-x="549" 
d="M290 -10c-45.333 0 -86.666 11.3311 -123.999 33.998s-66.833 53.334 -88.5 92.001s-32.5 82 -32.5 130s10.5 91.333 31.5 130s49.833 69.334 86.5 92.001s77.667 34 123 34c42.667 0 80.667 -11.333 114 -34s59.833 -52.834 79.5 -90.501s29.5 -79.5 29.5 -125.5v-18
h-419c2 -38 12 -72.167 30 -102.5s41.833 -54.5 71.5 -72.5s62.5 -27 98.5 -27c28 0 55.667 4.5 83 13.5s50.666 21.167 69.999 36.5l26 -35c-26.667 -19.333 -55 -33.666 -85 -42.999s-61.333 -14 -94 -14zM92 275.998l370.001 -0.000976562
c-3.33301 34 -13 64.833 -29 92.5s-36.667 49.834 -62 66.501s-54 25 -86 25c-34 0 -64.833 -8 -92.5 -24s-50.334 -37.833 -68.001 -65.5s-28.5 -59.167 -32.5 -94.5zM281.001 587.997c-37.333 0 -68.6699 10.666 -94.0029 31.999s-42 50 -50 86l37 8
c14.667 -60 50.334 -90 107.001 -90c27.333 0 50.333 7.83301 69 23.5s31.334 37.834 38.001 66.501l37 -8c-7.33301 -36 -23.666 -64.667 -48.999 -86s-57 -32 -95 -32z" />
    <glyph glyph-name="Edotaccent" unicode="&#x116;" horiz-adv-x="602" 
d="M83 0v700h484v-43h-438v-282h286v-43h-286v-289h442v-43h-488zM339 811c-10.667 0 -19.667 3.66699 -27 11s-11 16.333 -11 27s3.66699 19.667 11 27s16.333 11 27 11c11.333 0 20.5 -3.66699 27.5 -11s10.5 -16.333 10.5 -27s-3.5 -19.667 -10.5 -27
s-16.167 -11 -27.5 -11z" />
    <glyph glyph-name="edotaccent" unicode="&#x117;" horiz-adv-x="549" 
d="M290 -10c-45.333 0 -86.666 11.3311 -123.999 33.998s-66.833 53.334 -88.5 92.001s-32.5 82 -32.5 130s10.5 91.333 31.5 130s49.833 69.334 86.5 92.001s77.667 34 123 34c42.667 0 80.667 -11.333 114 -34s59.833 -52.834 79.5 -90.501s29.5 -79.5 29.5 -125.5v-18
h-419c2 -38 12 -72.167 30 -102.5s41.833 -54.5 71.5 -72.5s62.5 -27 98.5 -27c28 0 55.667 4.5 83 13.5s50.666 21.167 69.999 36.5l26 -35c-26.667 -19.333 -55 -33.666 -85 -42.999s-61.333 -14 -94 -14zM92 275.998l370.001 -0.000976562
c-3.33301 34 -13 64.833 -29 92.5s-36.667 49.834 -62 66.501s-54 25 -86 25c-34 0 -64.833 -8 -92.5 -24s-50.334 -37.833 -68.001 -65.5s-28.5 -59.167 -32.5 -94.5zM281.001 602.997c-10.667 0 -19.667 3.66699 -27 11s-11 16.333 -11 27s3.66699 19.667 11 27
s16.333 11 27 11c11.333 0 20.5 -3.66699 27.5 -11s10.5 -16.333 10.5 -27s-3.5 -19.667 -10.5 -27s-16.167 -11 -27.5 -11z" />
    <glyph glyph-name="Eogonek" unicode="&#x118;" horiz-adv-x="602" 
d="M585 -201c-10 -6.66699 -20.666 -11.668 -31.999 -15.001s-23.666 -5 -36.999 -5c-30.667 0 -54.334 8 -71.001 24s-25 35.667 -25 59c0 22 7.66699 43.833 23 65.5s41.666 45.834 78.999 72.501h-439v700h484v-43h-438v-282h286v-43h-286v-289h442v-43
c-42.667 -27.333 -72 -51.333 -88 -72s-24 -40.334 -24 -59.001s5.66699 -32.667 17 -42s26.333 -14 45 -14c9.33301 0 18.333 1.33301 27 4s16.667 6.33398 24 11.001z" />
    <glyph glyph-name="eogonek" unicode="&#x119;" horiz-adv-x="549" 
d="M310 -221c-30.667 0 -54.332 8 -70.999 24s-25 35.667 -25 59c0 20.667 6.66699 41 20 61s36 42.333 68 67c-48 -1.33301 -91.5 9 -130.5 31s-69.833 52.667 -92.5 92s-34 83.666 -34 132.999c0 48 10.5 91.333 31.5 130s49.833 69.334 86.5 92.001s77.667 34 123 34
c42.667 0 80.667 -11.333 114 -34s59.833 -52.834 79.5 -90.501s29.5 -79.5 29.5 -125.5v-18h-419c2 -38 12 -72.167 30 -102.5s41.833 -54.5 71.5 -72.5s62.5 -27 98.5 -27c28 0 55.667 4.5 83 13.5s50.666 21.167 69.999 36.5l26 -35c-16.667 -12 -33.834 -22 -51.501 -30
s-36.167 -14.333 -55.5 -19c-41.333 -26.667 -69.833 -50.167 -85.5 -70.5s-23.5 -39.833 -23.5 -58.5s5.66699 -32.667 17 -42s26.333 -14 45 -14c9.33301 0 18.333 1.33301 27 4s16.667 6.33398 24 11.001l13 -29c-10 -6.66699 -20.667 -11.667 -32 -15
s-23.666 -5 -36.999 -5zM92.002 276l370.001 -0.000976562c-3.33301 34 -13 64.833 -29 92.5s-36.667 49.834 -62 66.501s-54 25 -86 25c-34 0 -64.833 -8 -92.5 -24s-50.334 -37.833 -68.001 -65.5s-28.5 -59.167 -32.5 -94.5z" />
    <glyph glyph-name="Ecaron" unicode="&#x11a;" horiz-adv-x="602" 
d="M83 0v700h484v-43h-438v-282h286v-43h-286v-289h442v-43h-488zM253 916l86 -83l86 83h39l-99 -114h-52l-99 114h39z" />
    <glyph glyph-name="ecaron" unicode="&#x11b;" horiz-adv-x="549" 
d="M290 -10c-45.333 0 -86.666 11.3311 -123.999 33.998s-66.833 53.334 -88.5 92.001s-32.5 82 -32.5 130s10.5 91.333 31.5 130s49.833 69.334 86.5 92.001s77.667 34 123 34c42.667 0 80.667 -11.333 114 -34s59.833 -52.834 79.5 -90.501s29.5 -79.5 29.5 -125.5v-18
h-419c2 -38 12 -72.167 30 -102.5s41.833 -54.5 71.5 -72.5s62.5 -27 98.5 -27c28 0 55.667 4.5 83 13.5s50.666 21.167 69.999 36.5l26 -35c-26.667 -19.333 -55 -33.666 -85 -42.999s-61.333 -14 -94 -14zM92 275.998l370.001 -0.000976562
c-3.33301 34 -13 64.833 -29 92.5s-36.667 49.834 -62 66.501s-54 25 -86 25c-34 0 -64.833 -8 -92.5 -24s-50.334 -37.833 -68.001 -65.5s-28.5 -59.167 -32.5 -94.5zM195.001 707.997l86 -83l86 83h39l-99 -114h-52l-99 114h39z" />
    <glyph glyph-name="Gcircumflex" unicode="&#x11c;" horiz-adv-x="786" 
d="M406 -11c-50.667 0 -97.6689 9.33301 -141.002 28s-81.333 44.5 -114 77.5s-58 71.333 -76 115s-27 90.5 -27 140.5s9.16699 96.833 27.5 140.5s43.666 82 75.999 115s70.333 58.833 114 77.5s90.834 28 141.501 28c52 0 101.167 -9.16699 147.5 -27.5
s87.166 -45.166 122.499 -80.499l-30 -35c-28.667 31.333 -64.5 55.833 -107.5 73.5s-87.167 26.5 -132.5 26.5c-44.667 0 -85.834 -8.16699 -123.501 -24.5s-70.667 -39 -99 -68s-50.333 -62.667 -66 -101s-23.5 -79.833 -23.5 -124.5s7.83301 -86.167 23.5 -124.5
s37.5 -72 65.5 -101s60.833 -51.667 98.5 -68s78.834 -24.5 123.501 -24.5c54 0 102.167 12.167 144.5 36.5s76.333 57.666 102 99.999s39.834 89.833 42.501 142.5h-269v43h314v-25c0 -47.333 -8.5 -91.5 -25.5 -132.5s-40.667 -77 -71 -108s-65.666 -55.333 -105.999 -73
s-84.166 -26.5 -131.499 -26.5zM491.998 799l-88 83l-88 -83h-37l99 115h52l99 -115h-37z" />
    <glyph glyph-name="gcircumflex" unicode="&#x11d;" horiz-adv-x="571" 
d="M305 -214c-32.667 0 -64.999 4.66406 -96.999 13.9971s-61.333 22.333 -88 39l25 36c29.333 -16.667 56.166 -28.667 80.499 -36s49.833 -11 76.5 -11c51.333 0 90.333 12.333 117 37s40 61.334 40 110.001v84c-44.667 -46 -101 -69 -169 -69
c-45.333 0 -86.666 11.333 -123.999 34s-66.833 53.334 -88.5 92.001s-32.5 82 -32.5 130s10.833 91.333 32.5 130s51.167 69.334 88.5 92.001s78.666 34 123.999 34c31.333 0 61.666 -6.16699 90.999 -18.5s55.333 -28.833 78 -49.5v58h44v-515
c0 -62.667 -17.167 -110.167 -51.5 -142.5s-83.166 -48.5 -146.499 -48.5zM290.001 31.9971c36.667 0 69.832 7.5 99.499 22.5s52.834 34.833 69.501 59.5v264c-17.333 23.333 -41 42.833 -71 58.5s-62.667 23.5 -98 23.5c-37.333 0 -71.166 -9.5 -101.499 -28.5
s-54.333 -44.667 -72 -77s-26.5 -68.5 -26.5 -108.5s8.83301 -76.167 26.5 -108.5s41.667 -58 72 -77s64.166 -28.5 101.499 -28.5zM370.999 590.997l-88 83l-88 -83h-37l99 115h52l99 -115h-37z" />
    <glyph glyph-name="Gbreve" unicode="&#x11e;" horiz-adv-x="786" 
d="M406 -11c-50.667 0 -97.6689 9.33301 -141.002 28s-81.333 44.5 -114 77.5s-58 71.333 -76 115s-27 90.5 -27 140.5s9.16699 96.833 27.5 140.5s43.666 82 75.999 115s70.333 58.833 114 77.5s90.834 28 141.501 28c52 0 101.167 -9.16699 147.5 -27.5
s87.166 -45.166 122.499 -80.499l-30 -35c-28.667 31.333 -64.5 55.833 -107.5 73.5s-87.167 26.5 -132.5 26.5c-44.667 0 -85.834 -8.16699 -123.501 -24.5s-70.667 -39 -99 -68s-50.333 -62.667 -66 -101s-23.5 -79.833 -23.5 -124.5s7.83301 -86.167 23.5 -124.5
s37.5 -72 65.5 -101s60.833 -51.667 98.5 -68s78.834 -24.5 123.501 -24.5c54 0 102.167 12.167 144.5 36.5s76.333 57.666 102 99.999s39.834 89.833 42.501 142.5h-269v43h314v-25c0 -47.333 -8.5 -91.5 -25.5 -132.5s-40.667 -77 -71 -108s-65.666 -55.333 -105.999 -73
s-84.166 -26.5 -131.499 -26.5zM403.998 796c-37.333 0 -68.6699 10.666 -94.0029 31.999s-42 50 -50 86l37 8c14.667 -60 50.334 -90 107.001 -90c27.333 0 50.333 7.83301 69 23.5s31.334 37.834 38.001 66.501l37 -8c-7.33301 -36 -23.666 -64.667 -48.999 -86
s-57 -32 -95 -32z" />
    <glyph glyph-name="gbreve" unicode="&#x11f;" horiz-adv-x="571" 
d="M305 -214c-32.667 0 -64.999 4.66406 -96.999 13.9971s-61.333 22.333 -88 39l25 36c29.333 -16.667 56.166 -28.667 80.499 -36s49.833 -11 76.5 -11c51.333 0 90.333 12.333 117 37s40 61.334 40 110.001v84c-44.667 -46 -101 -69 -169 -69
c-45.333 0 -86.666 11.333 -123.999 34s-66.833 53.334 -88.5 92.001s-32.5 82 -32.5 130s10.833 91.333 32.5 130s51.167 69.334 88.5 92.001s78.666 34 123.999 34c31.333 0 61.666 -6.16699 90.999 -18.5s55.333 -28.833 78 -49.5v58h44v-515
c0 -62.667 -17.167 -110.167 -51.5 -142.5s-83.166 -48.5 -146.499 -48.5zM290.001 31.9971c36.667 0 69.832 7.5 99.499 22.5s52.834 34.833 69.501 59.5v264c-17.333 23.333 -41 42.833 -71 58.5s-62.667 23.5 -98 23.5c-37.333 0 -71.166 -9.5 -101.499 -28.5
s-54.333 -44.667 -72 -77s-26.5 -68.5 -26.5 -108.5s8.83301 -76.167 26.5 -108.5s41.667 -58 72 -77s64.166 -28.5 101.499 -28.5zM282.999 587.997c-37.333 0 -68.6699 10.666 -94.0029 31.999s-42 50 -50 86l37 8c14.667 -60 50.334 -90 107.001 -90
c27.333 0 50.333 7.83301 69 23.5s31.334 37.834 38.001 66.501l37 -8c-7.33301 -36 -23.666 -64.667 -48.999 -86s-57 -32 -95 -32z" />
    <glyph glyph-name="Gdotaccent" unicode="&#x120;" horiz-adv-x="786" 
d="M406 -11c-50.667 0 -97.6689 9.33301 -141.002 28s-81.333 44.5 -114 77.5s-58 71.333 -76 115s-27 90.5 -27 140.5s9.16699 96.833 27.5 140.5s43.666 82 75.999 115s70.333 58.833 114 77.5s90.834 28 141.501 28c52 0 101.167 -9.16699 147.5 -27.5
s87.166 -45.166 122.499 -80.499l-30 -35c-28.667 31.333 -64.5 55.833 -107.5 73.5s-87.167 26.5 -132.5 26.5c-44.667 0 -85.834 -8.16699 -123.501 -24.5s-70.667 -39 -99 -68s-50.333 -62.667 -66 -101s-23.5 -79.833 -23.5 -124.5s7.83301 -86.167 23.5 -124.5
s37.5 -72 65.5 -101s60.833 -51.667 98.5 -68s78.834 -24.5 123.501 -24.5c54 0 102.167 12.167 144.5 36.5s76.333 57.666 102 99.999s39.834 89.833 42.501 142.5h-269v43h314v-25c0 -47.333 -8.5 -91.5 -25.5 -132.5s-40.667 -77 -71 -108s-65.666 -55.333 -105.999 -73
s-84.166 -26.5 -131.499 -26.5zM403.998 811c-10.667 0 -19.667 3.66699 -27 11s-11 16.333 -11 27s3.66699 19.667 11 27s16.333 11 27 11c11.333 0 20.5 -3.66699 27.5 -11s10.5 -16.333 10.5 -27s-3.5 -19.667 -10.5 -27s-16.167 -11 -27.5 -11z" />
    <glyph glyph-name="gdotaccent" unicode="&#x121;" horiz-adv-x="571" 
d="M305 -214c-32.667 0 -64.999 4.66406 -96.999 13.9971s-61.333 22.333 -88 39l25 36c29.333 -16.667 56.166 -28.667 80.499 -36s49.833 -11 76.5 -11c51.333 0 90.333 12.333 117 37s40 61.334 40 110.001v84c-44.667 -46 -101 -69 -169 -69
c-45.333 0 -86.666 11.333 -123.999 34s-66.833 53.334 -88.5 92.001s-32.5 82 -32.5 130s10.833 91.333 32.5 130s51.167 69.334 88.5 92.001s78.666 34 123.999 34c31.333 0 61.666 -6.16699 90.999 -18.5s55.333 -28.833 78 -49.5v58h44v-515
c0 -62.667 -17.167 -110.167 -51.5 -142.5s-83.166 -48.5 -146.499 -48.5zM290.001 31.9971c36.667 0 69.832 7.5 99.499 22.5s52.834 34.833 69.501 59.5v264c-17.333 23.333 -41 42.833 -71 58.5s-62.667 23.5 -98 23.5c-37.333 0 -71.166 -9.5 -101.499 -28.5
s-54.333 -44.667 -72 -77s-26.5 -68.5 -26.5 -108.5s8.83301 -76.167 26.5 -108.5s41.667 -58 72 -77s64.166 -28.5 101.499 -28.5zM282.999 602.997c-10.667 0 -19.667 3.66699 -27 11s-11 16.333 -11 27s3.66699 19.667 11 27s16.333 11 27 11
c11.333 0 20.5 -3.66699 27.5 -11s10.5 -16.333 10.5 -27s-3.5 -19.667 -10.5 -27s-16.167 -11 -27.5 -11z" />
    <glyph glyph-name="Gcommaaccent" unicode="&#x122;" horiz-adv-x="786" 
d="M406 -11c-50.667 0 -97.6689 9.33301 -141.002 28s-81.333 44.5 -114 77.5s-58 71.333 -76 115s-27 90.5 -27 140.5s9.16699 96.833 27.5 140.5s43.666 82 75.999 115s70.333 58.833 114 77.5s90.834 28 141.501 28c52 0 101.167 -9.16699 147.5 -27.5
s87.166 -45.166 122.499 -80.499l-30 -35c-28.667 31.333 -64.5 55.833 -107.5 73.5s-87.167 26.5 -132.5 26.5c-44.667 0 -85.834 -8.16699 -123.501 -24.5s-70.667 -39 -99 -68s-50.333 -62.667 -66 -101s-23.5 -79.833 -23.5 -124.5s7.83301 -86.167 23.5 -124.5
s37.5 -72 65.5 -101s60.833 -51.667 98.5 -68s78.834 -24.5 123.501 -24.5c54 0 102.167 12.167 144.5 36.5s76.333 57.666 102 99.999s39.834 89.833 42.501 142.5h-269v43h314v-25c0 -47.333 -8.5 -91.5 -25.5 -132.5s-40.667 -77 -71 -108s-65.666 -55.333 -105.999 -73
s-84.166 -26.5 -131.499 -26.5zM347.998 -254l36 168h50l-51 -168h-35z" />
    <glyph glyph-name="gcommaaccent" unicode="&#x123;" horiz-adv-x="566" 
d="M305 -214c-32.667 0 -64.999 4.66406 -96.999 13.9971s-61.333 22.333 -88 39l25 36c29.333 -16.667 56.166 -28.667 80.499 -36s49.833 -11 76.5 -11c51.333 0 90.333 12.333 117 37s40 61.334 40 110.001v84c-44.667 -46 -101 -69 -169 -69
c-45.333 0 -86.666 11.333 -123.999 34s-66.833 53.334 -88.5 92.001s-32.5 82 -32.5 130s10.833 91.333 32.5 130s51.167 69.334 88.5 92.001s78.666 34 123.999 34c31.333 0 61.666 -6.16699 90.999 -18.5s55.333 -28.833 78 -49.5v58h44v-515
c0 -62.667 -17.167 -110.167 -51.5 -142.5s-83.166 -48.5 -146.499 -48.5zM290.001 31.9971c36.667 0 69.832 7.5 99.499 22.5s52.834 34.833 69.501 59.5v264c-17.333 23.333 -41 42.833 -71 58.5s-62.667 23.5 -98 23.5c-37.333 0 -71.166 -9.5 -101.499 -28.5
s-54.333 -44.667 -72 -77s-26.5 -68.5 -26.5 -108.5s8.83301 -76.167 26.5 -108.5s41.667 -58 72 -77s64.166 -28.5 101.499 -28.5zM339.999 771.997l-36 -168h-50l51 168h35z" />
    <glyph glyph-name="Hcircumflex" unicode="&#x124;" horiz-adv-x="704" 
d="M83 0v700h46v-326h446v326h46v-700h-46v331h-446v-331h-46zM440 799l-88 83l-88 -83h-37l99 115h52l99 -115h-37z" />
    <glyph glyph-name="hcircumflex" unicode="&#x125;" horiz-adv-x="529" 
d="M68 0l0.000976562 700l44 11v-288c40 52.667 94.333 79 163 79c37.333 0 70.166 -7.83301 98.499 -23.5s50.333 -37.667 66 -66s23.5 -61.166 23.5 -98.499v-314h-44v302c0 49.333 -13.667 88.166 -41 116.499s-65 42.5 -113 42.5c-33.333 0 -63.333 -7.83301 -90 -23.5
s-47.667 -38.167 -63 -67.5v-370h-44zM177.001 799l-88 83l-88 -83h-37l99 115h52l99 -115h-37z" />
    <glyph glyph-name="Hbar" unicode="&#x126;" horiz-adv-x="704" 
d="M83 0v529h-70v41h70v130h46v-130h446v130h46v-130h70v-41h-70v-529h-46v331h-446v-331h-46zM129 374h446v155h-446v-155z" />
    <glyph glyph-name="hbar" unicode="&#x127;" horiz-adv-x="529" 
d="M68 0l0.000976562 590h-66v37h66v73l44 11v-84h176v-37h-176v-167c40 52.667 94.333 79 163 79c37.333 0 70.166 -7.83301 98.499 -23.5s50.333 -37.667 66 -66s23.5 -61.166 23.5 -98.499v-314h-44v302c0 49.333 -13.667 88.166 -41 116.499s-65 42.5 -113 42.5
c-33.333 0 -63.333 -7.83301 -90 -23.5s-47.667 -38.167 -63 -67.5v-370h-44z" />
    <glyph glyph-name="Itilde" unicode="&#x128;" horiz-adv-x="212" 
d="M83 0v700h46v-700h-46zM-14 801l-37.001 6.00098c13.333 60 42 90 86 90c17.333 0 34.166 -4.83301 50.499 -14.5l48 -28.5c15.667 -9.33301 30.5 -14 44.5 -14c11.333 0 20.833 4.33301 28.5 13s13.834 23.667 18.501 45l37 -6
c-6.66699 -30.667 -17.5 -53.334 -32.5 -68.001s-33.167 -22 -54.5 -22c-16.667 0 -33.167 4.66699 -49.5 14s-32.166 18.833 -47.499 28.5s-30.333 14.5 -45 14.5c-12.667 0 -22.5 -4.33301 -29.5 -13s-12.833 -23.667 -17.5 -45z" />
    <glyph glyph-name="itilde" unicode="&#x129;" horiz-adv-x="180" 
d="M68 0v492h44v-492h-44zM-34 593l-37.001 6.00098c13.333 60 42 90 86 90c17.333 0 34.166 -4.83301 50.499 -14.5l48 -28.5c15.667 -9.33301 30.5 -14 44.5 -14c11.333 0 20.833 4.33301 28.5 13s13.834 23.667 18.501 45l37 -6
c-6.66699 -30.667 -17.5 -53.334 -32.5 -68.001s-33.167 -22 -54.5 -22c-16.667 0 -33.167 4.66699 -49.5 14s-32.166 18.833 -47.499 28.5s-30.333 14.5 -45 14.5c-12.667 0 -22.5 -4.33301 -29.5 -13s-12.833 -23.667 -17.5 -45z" />
    <glyph glyph-name="Imacron" unicode="&#x12a;" horiz-adv-x="212" 
d="M83 0v700h46v-700h-46zM-27 828v37h267v-37h-267z" />
    <glyph glyph-name="imacron" unicode="&#x12b;" horiz-adv-x="180" 
d="M68 0v492h44v-492h-44zM-47 620v37h267v-37h-267z" />
    <glyph glyph-name="Ibreve" unicode="&#x12c;" horiz-adv-x="212" 
d="M83 0v700h46v-700h-46zM106 796c-37.333 0 -68.6699 10.666 -94.0029 31.999s-42 50 -50 86l37 8c14.667 -60 50.334 -90 107.001 -90c27.333 0 50.333 7.83301 69 23.5s31.334 37.834 38.001 66.501l37 -8c-7.33301 -36 -23.666 -64.667 -48.999 -86s-57 -32 -95 -32z
" />
    <glyph glyph-name="ibreve" unicode="&#x12d;" horiz-adv-x="180" 
d="M68 0v492h44v-492h-44zM86 588c-37.333 0 -68.6699 10.666 -94.0029 31.999s-42 50 -50 86l37 8c14.667 -60 50.334 -90 107.001 -90c27.333 0 50.333 7.83301 69 23.5s31.334 37.834 38.001 66.501l37 -8c-7.33301 -36 -23.666 -64.667 -48.999 -86s-57 -32 -95 -32z
" />
    <glyph glyph-name="Iogonek" unicode="&#x12e;" horiz-adv-x="212" 
d="M74 -221c-30.667 0 -54.334 8 -71.001 24s-25 35.667 -25 59c0 22 8.16699 44.5 24.5 67.5s43.5 46.5 81.5 70.5h-1v700h46v-700c-42.667 -27.333 -72 -51.333 -88 -72s-24 -40.334 -24 -59.001s5.66699 -32.667 17 -42s26.333 -14 45 -14c9.33301 0 18.333 1.33301 27 4
s16.667 6.33398 24 11.001l13 -29c-10 -6.66699 -20.667 -11.667 -32 -15s-23.666 -5 -36.999 -5z" />
    <glyph glyph-name="iogonek" unicode="&#x12f;" horiz-adv-x="180" 
d="M90 603c-10.667 0 -19.667 3.66699 -27 11s-11 16.333 -11 27s3.66699 19.667 11 27s16.333 11 27 11c11.333 0 20.5 -3.66699 27.5 -11s10.5 -16.333 10.5 -27s-3.5 -19.667 -10.5 -27s-16.167 -11 -27.5 -11zM57 -221c-30.667 0 -54.335 8 -71.002 24
s-25 35.667 -25 59c0 22 8.33301 44.5 25 67.5s44.334 46.5 83.001 70.5h-1v492h44v-492c-42.667 -27.333 -72 -51.333 -88 -72s-24 -40.334 -24 -59.001s5.66699 -32.667 17 -42s26.333 -14 45 -14c9.33301 0 18.333 1.33301 27 4s16.667 6.33398 24 11.001l13 -29
c-10 -6.66699 -20.667 -11.667 -32 -15s-23.666 -5 -36.999 -5z" />
    <glyph glyph-name="Idotaccent" unicode="&#x130;" horiz-adv-x="212" 
d="M83 0v700h46v-700h-46zM106 811c-10.667 0 -19.667 3.66699 -27 11s-11 16.333 -11 27s3.66699 19.667 11 27s16.333 11 27 11c11.333 0 20.5 -3.66699 27.5 -11s10.5 -16.333 10.5 -27s-3.5 -19.667 -10.5 -27s-16.167 -11 -27.5 -11z" />
    <glyph glyph-name="dotlessi" unicode="&#x131;" horiz-adv-x="180" 
d="M68 0v492h44v-492h-44z" />
    <glyph glyph-name="IJ" unicode="&#x132;" horiz-adv-x="794" 
d="M83 0v700h46v-700h-46zM471 -11c-56.667 0 -105.832 14.167 -147.499 42.5s-73.5 69.833 -95.5 124.5l42 19c19.333 -46 46 -81.333 80 -106s74.667 -37 122 -37c63.333 0 113.666 20.5 150.999 61.5s56 96.5 56 166.5v440h46v-440c0 -56 -10.333 -104.167 -31 -144.5
s-50 -71.5 -88 -93.5s-83 -33 -135 -33z" />
    <glyph glyph-name="ij" unicode="&#x133;" horiz-adv-x="356" 
d="M68 0v492h44v-492h-44zM90 603c-10.667 0 -19.667 3.66699 -27 11s-11 16.333 -11 27s3.66699 19.667 11 27s16.333 11 27 11c11.333 0 20.5 -3.66699 27.5 -11s10.5 -16.333 10.5 -27s-3.5 -19.667 -10.5 -27s-16.167 -11 -27.5 -11zM268 604
c-10.667 0 -19.5 3.66699 -26.5 11s-10.5 16 -10.5 26s3.5 18.667 10.5 26s15.833 11 26.5 11s19.5 -3.66699 26.5 -11s10.5 -16 10.5 -26s-3.5 -18.667 -10.5 -26s-15.833 -11 -26.5 -11zM180 -214c-6.66699 0 -12.5 0.332031 -17.5 0.999023
s-10.833 1.33398 -17.5 2.00098v44c10.667 -2.66699 22 -4 34 -4c24 0 41.167 5.66699 51.5 17s15.5 30.333 15.5 57v589h44v-594c0 -35.333 -9.33301 -62.833 -28 -82.5s-46 -29.5 -82 -29.5z" />
    <glyph glyph-name="Jcircumflex" unicode="&#x134;" horiz-adv-x="581" 
d="M259 -11c-56.667 0 -105.832 14.167 -147.499 42.5s-73.5 69.833 -95.5 124.5l42 19c19.333 -46 46 -81.333 80 -106s74.667 -37 122 -37c63.333 0 113.666 20.5 150.999 61.5s56 96.5 56 166.5v440h46v-440c0 -56 -10.333 -104.167 -31 -144.5s-50 -71.5 -88 -93.5
s-83 -33 -135 -33zM578.002 799l-88 83l-88 -83h-37l99 115h52l99 -115h-37z" />
    <glyph glyph-name="jcircumflex" unicode="&#x135;" horiz-adv-x="180" 
d="M3 -214c-6.66699 0 -12.667 0.333008 -18 1s-11.333 1.33398 -18 2.00098v44c10.667 -2.66699 22.334 -4 35.001 -4c23.333 0 40.166 5.66699 50.499 17s15.5 30.333 15.5 57v589h44v-595c0 -34.667 -9.16699 -61.834 -27.5 -81.501s-45.5 -29.5 -81.5 -29.5zM178 591
l-88 83l-88 -83h-37l99 115h52l99 -115h-37z" />
    <glyph glyph-name="Kcommaaccent" unicode="&#x136;" horiz-adv-x="580" 
d="M83 0v700h46v-341l388 341h65l-399 -349l405 -351h-70l-389 339v-339h-46zM257 -254l36 168h50l-51 -168h-35z" />
    <glyph glyph-name="kcommaaccent" unicode="&#x137;" horiz-adv-x="461" 
d="M68 0v700l44 11v-448l278 229h62l-290 -238l302 -254h-67l-285 242v-242h-44zM170 -254l36 168h50l-51 -168h-35z" />
    <glyph glyph-name="kgreenlandic" unicode="&#x138;" horiz-adv-x="461" 
d="M68 0v492h44v-229l278 229h62l-290 -238l302 -254h-67l-285 242v-242h-44z" />
    <glyph glyph-name="Lacute" unicode="&#x139;" horiz-adv-x="593" 
d="M83 0v700h46v-657h432v-43h-478zM71 804l96 110h67l-119 -110h-44z" />
    <glyph glyph-name="lacute" unicode="&#x13a;" horiz-adv-x="180" 
d="M68 0v700l44 11v-711h-44zM55 804l96 110h67l-119 -110h-44z" />
    <glyph glyph-name="Lcommaaccent" unicode="&#x13b;" horiz-adv-x="593" 
d="M83 0v700h46v-657h432v-43h-478zM278 -254l36 168h50l-51 -168h-35z" />
    <glyph glyph-name="lcommaaccent" unicode="&#x13c;" horiz-adv-x="180" 
d="M68 0v700l44 11v-711h-44zM29 -254l36 168h50l-51 -168h-35z" />
    <glyph glyph-name="Lcaron" unicode="&#x13d;" horiz-adv-x="588" 
d="M83 0v700h46v-657h432v-43h-478zM403 532l2 168l48 10l-17 -178h-33z" />
    <glyph glyph-name="lcaron" unicode="&#x13e;" horiz-adv-x="255" 
d="M68 0v700l44 11v-711h-44zM198 532l2 168l48 10l-17 -178h-33z" />
    <glyph glyph-name="Ldot" unicode="&#x13f;" horiz-adv-x="588" 
d="M83 0v700h46v-657h432v-43h-478zM397 312c-10.667 0 -19.667 3.66699 -27 11s-11 16.333 -11 27s3.66699 19.667 11 27s16.333 11 27 11c11.333 0 20.5 -3.66699 27.5 -11s10.5 -16.333 10.5 -27s-3.5 -19.667 -10.5 -27s-16.167 -11 -27.5 -11z" />
    <glyph glyph-name="ldot" unicode="&#x140;" horiz-adv-x="248" 
d="M68 0v700l44 11v-711h-44zM214 313c-10.667 0 -19.667 3.66699 -27 11s-11 16.333 -11 27s3.66699 19.667 11 27s16.333 11 27 11c11.333 0 20.5 -3.66699 27.5 -11s10.5 -16.333 10.5 -27s-3.5 -19.667 -10.5 -27s-16.167 -11 -27.5 -11z" />
    <glyph glyph-name="Lslash" unicode="&#x141;" horiz-adv-x="597" 
d="M92 0v244l-81 -67v52l81 66v405h46v-367l210 172v-51l-210 -173v-238h432v-43h-478z" />
    <glyph glyph-name="lslash" unicode="&#x142;" horiz-adv-x="218" 
d="M88 0v343l-79 -69v52l79 69v305l44 11v-278l77 67v-51l-77 -67v-382h-44z" />
    <glyph glyph-name="Nacute" unicode="&#x143;" horiz-adv-x="714" 
d="M83 0v700h50l452 -619v619h46v-700h-40l-462 632v-632h-46zM322 804l96 110h67l-119 -110h-44z" />
    <glyph glyph-name="nacute" unicode="&#x144;" horiz-adv-x="529" 
d="M68 0l0.000976562 492h44v-69c40 52.667 94.333 79 163 79c37.333 0 70.166 -7.83301 98.499 -23.5s50.333 -37.667 66 -66s23.5 -61.166 23.5 -98.499v-314h-44v302c0 49.333 -13.667 88.166 -41 116.499s-65 42.5 -113 42.5c-33.333 0 -63.333 -7.83301 -90 -23.5
s-47.667 -38.167 -63 -67.5v-370h-44zM231.001 596l96 110h67l-119 -110h-44z" />
    <glyph glyph-name="Ncommaaccent" unicode="&#x145;" horiz-adv-x="714" 
d="M83 0v700h50l452 -619v619h46v-700h-40l-462 632v-632h-46zM296 -254l36 168h50l-51 -168h-35z" />
    <glyph glyph-name="ncommaaccent" unicode="&#x146;" horiz-adv-x="529" 
d="M68 0l0.000976562 492h44v-69c40 52.667 94.333 79 163 79c37.333 0 70.166 -7.83301 98.499 -23.5s50.333 -37.667 66 -66s23.5 -61.166 23.5 -98.499v-314h-44v302c0 49.333 -13.667 88.166 -41 116.499s-65 42.5 -113 42.5c-33.333 0 -63.333 -7.83301 -90 -23.5
s-47.667 -38.167 -63 -67.5v-370h-44zM205.001 -254l36 168h50l-51 -168h-35z" />
    <glyph glyph-name="Ncaron" unicode="&#x147;" horiz-adv-x="714" 
d="M83 0v700h50l452 -619v619h46v-700h-40l-462 632v-632h-46zM271 916l86 -83l86 83h39l-99 -114h-52l-99 114h39z" />
    <glyph glyph-name="ncaron" unicode="&#x148;" horiz-adv-x="529" 
d="M68 0l0.000976562 492h44v-69c40 52.667 94.333 79 163 79c37.333 0 70.166 -7.83301 98.499 -23.5s50.333 -37.667 66 -66s23.5 -61.166 23.5 -98.499v-314h-44v302c0 49.333 -13.667 88.166 -41 116.499s-65 42.5 -113 42.5c-33.333 0 -63.333 -7.83301 -90 -23.5
s-47.667 -38.167 -63 -67.5v-370h-44zM180.001 708l86 -83l86 83h39l-99 -114h-52l-99 114h39z" />
    <glyph glyph-name="Eng" unicode="&#x14a;" horiz-adv-x="714" 
d="M522 -214c-6.66699 0 -12.667 0.333008 -18 1s-11.333 1.33398 -18 2.00098v44c10.667 -2.66699 22.334 -4 35.001 -4c23.333 0 40.166 5.66699 50.499 17s15.5 30.333 15.5 57v97l-458 632v-632h-46v700h50l452 -624v624h46v-803
c0 -34.667 -9.16699 -61.834 -27.5 -81.501s-45.5 -29.5 -81.5 -29.5z" />
    <glyph glyph-name="eng" unicode="&#x14b;" horiz-adv-x="529" 
d="M354 -214c-6.66699 0 -12.666 0.333008 -17.999 1s-11.333 1.33398 -18 2.00098v44c10.667 -2.66699 22.334 -4 35.001 -4c23.333 0 40.166 5.66699 50.499 17s15.5 30.333 15.5 57v399c0 49.333 -13.667 88.166 -41 116.499s-65 42.5 -113 42.5
c-33.333 0 -63.333 -7.83301 -90 -23.5s-47.667 -38.167 -63 -67.5v-370h-44v492h44v-69c40 52.667 94.333 79 163 79c37.333 0 70.166 -7.83301 98.499 -23.5s50.333 -37.667 66 -66s23.5 -61.166 23.5 -98.499v-417c0 -34.667 -9.16699 -61.834 -27.5 -81.501
s-45.5 -29.5 -81.5 -29.5z" />
    <glyph glyph-name="Omacron" unicode="&#x14c;" horiz-adv-x="808" 
d="M404 -11c-49.333 0 -95.5 9.16699 -138.5 27.5s-80.833 44 -113.5 77s-58.167 71.333 -76.5 115s-27.5 90.834 -27.5 141.501s9.16699 97.834 27.5 141.501s43.833 82 76.5 115s70.5 58.667 113.5 77s89.167 27.5 138.5 27.5s95.5 -9.16699 138.5 -27.5
s80.833 -44 113.5 -77s58.167 -71.333 76.5 -115s27.5 -90.834 27.5 -141.501s-9.16699 -97.834 -27.5 -141.501s-43.833 -82 -76.5 -115s-70.5 -58.667 -113.5 -77s-89.167 -27.5 -138.5 -27.5zM404 32c43.333 0 83.833 8.16699 121.5 24.5s70.5 38.833 98.5 67.5
s49.833 62.334 65.5 101.001s23.5 80.334 23.5 125.001s-7.83301 86.334 -23.5 125.001s-37.5 72.334 -65.5 101.001s-60.833 51.167 -98.5 67.5s-78.167 24.5 -121.5 24.5s-83.833 -8.16699 -121.5 -24.5s-70.5 -38.833 -98.5 -67.5s-49.833 -62.334 -65.5 -101.001
s-23.5 -80.334 -23.5 -125.001s7.83301 -86.334 23.5 -125.001s37.5 -72.334 65.5 -101.001s60.833 -51.167 98.5 -67.5s78.167 -24.5 121.5 -24.5zM271 828v37h267v-37h-267z" />
    <glyph glyph-name="omacron" unicode="&#x14d;" horiz-adv-x="580" 
d="M290 -10c-45.333 0 -86.666 11.333 -123.999 34s-66.833 53.5 -88.5 92.5s-32.5 82.167 -32.5 129.5c0 48 10.833 91.333 32.5 130s51.167 69.334 88.5 92.001s78.666 34 123.999 34c46 0 87.5 -11.333 124.5 -34s66.333 -53.334 88 -92.001s32.5 -82 32.5 -130
c0 -47.333 -10.833 -90.5 -32.5 -129.5s-51 -69.833 -88 -92.5s-78.5 -34 -124.5 -34zM290 32c37.333 0 71.166 9.5 101.499 28.5s54.333 44.667 72 77s26.5 68.5 26.5 108.5s-8.83301 76.167 -26.5 108.5s-41.667 58 -72 77s-64.166 28.5 -101.499 28.5
s-71.166 -9.5 -101.499 -28.5s-54.333 -44.667 -72 -77s-26.5 -68.5 -26.5 -108.5s8.83301 -76.167 26.5 -108.5s41.667 -58 72 -77s64.166 -28.5 101.499 -28.5zM157 620v37h267v-37h-267z" />
    <glyph glyph-name="Obreve" unicode="&#x14e;" horiz-adv-x="808" 
d="M404 -11c-49.333 0 -95.5 9.16699 -138.5 27.5s-80.833 44 -113.5 77s-58.167 71.333 -76.5 115s-27.5 90.834 -27.5 141.501s9.16699 97.834 27.5 141.501s43.833 82 76.5 115s70.5 58.667 113.5 77s89.167 27.5 138.5 27.5s95.5 -9.16699 138.5 -27.5
s80.833 -44 113.5 -77s58.167 -71.333 76.5 -115s27.5 -90.834 27.5 -141.501s-9.16699 -97.834 -27.5 -141.501s-43.833 -82 -76.5 -115s-70.5 -58.667 -113.5 -77s-89.167 -27.5 -138.5 -27.5zM404 32c43.333 0 83.833 8.16699 121.5 24.5s70.5 38.833 98.5 67.5
s49.833 62.334 65.5 101.001s23.5 80.334 23.5 125.001s-7.83301 86.334 -23.5 125.001s-37.5 72.334 -65.5 101.001s-60.833 51.167 -98.5 67.5s-78.167 24.5 -121.5 24.5s-83.833 -8.16699 -121.5 -24.5s-70.5 -38.833 -98.5 -67.5s-49.833 -62.334 -65.5 -101.001
s-23.5 -80.334 -23.5 -125.001s7.83301 -86.334 23.5 -125.001s37.5 -72.334 65.5 -101.001s60.833 -51.167 98.5 -67.5s78.167 -24.5 121.5 -24.5zM404 796c-37.333 0 -68.6699 10.666 -94.0029 31.999s-42 50 -50 86l37 8c14.667 -60 50.334 -90 107.001 -90
c27.333 0 50.333 7.83301 69 23.5s31.334 37.834 38.001 66.501l37 -8c-7.33301 -36 -23.666 -64.667 -48.999 -86s-57 -32 -95 -32z" />
    <glyph glyph-name="obreve" unicode="&#x14f;" horiz-adv-x="580" 
d="M290 -10c-45.333 0 -86.666 11.333 -123.999 34s-66.833 53.5 -88.5 92.5s-32.5 82.167 -32.5 129.5c0 48 10.833 91.333 32.5 130s51.167 69.334 88.5 92.001s78.666 34 123.999 34c46 0 87.5 -11.333 124.5 -34s66.333 -53.334 88 -92.001s32.5 -82 32.5 -130
c0 -47.333 -10.833 -90.5 -32.5 -129.5s-51 -69.833 -88 -92.5s-78.5 -34 -124.5 -34zM290 32c37.333 0 71.166 9.5 101.499 28.5s54.333 44.667 72 77s26.5 68.5 26.5 108.5s-8.83301 76.167 -26.5 108.5s-41.667 58 -72 77s-64.166 28.5 -101.499 28.5
s-71.166 -9.5 -101.499 -28.5s-54.333 -44.667 -72 -77s-26.5 -68.5 -26.5 -108.5s8.83301 -76.167 26.5 -108.5s41.667 -58 72 -77s64.166 -28.5 101.499 -28.5zM290 588c-37.333 0 -68.6699 10.666 -94.0029 31.999s-42 50 -50 86l37 8c14.667 -60 50.334 -90 107.001 -90
c27.333 0 50.333 7.83301 69 23.5s31.334 37.834 38.001 66.501l37 -8c-7.33301 -36 -23.666 -64.667 -48.999 -86s-57 -32 -95 -32z" />
    <glyph glyph-name="Ohungarumlaut" unicode="&#x150;" horiz-adv-x="808" 
d="M404 -11c-49.333 0 -95.5 9.16699 -138.5 27.5s-80.833 44 -113.5 77s-58.167 71.333 -76.5 115s-27.5 90.834 -27.5 141.501s9.16699 97.834 27.5 141.501s43.833 82 76.5 115s70.5 58.667 113.5 77s89.167 27.5 138.5 27.5s95.5 -9.16699 138.5 -27.5
s80.833 -44 113.5 -77s58.167 -71.333 76.5 -115s27.5 -90.834 27.5 -141.501s-9.16699 -97.834 -27.5 -141.501s-43.833 -82 -76.5 -115s-70.5 -58.667 -113.5 -77s-89.167 -27.5 -138.5 -27.5zM404 32c43.333 0 83.833 8.16699 121.5 24.5s70.5 38.833 98.5 67.5
s49.833 62.334 65.5 101.001s23.5 80.334 23.5 125.001s-7.83301 86.334 -23.5 125.001s-37.5 72.334 -65.5 101.001s-60.833 51.167 -98.5 67.5s-78.167 24.5 -121.5 24.5s-83.833 -8.16699 -121.5 -24.5s-70.5 -38.833 -98.5 -67.5s-49.833 -62.334 -65.5 -101.001
s-23.5 -80.334 -23.5 -125.001s7.83301 -86.334 23.5 -125.001s37.5 -72.334 65.5 -101.001s60.833 -51.167 98.5 -67.5s78.167 -24.5 121.5 -24.5zM288 807l106 107h63l-124 -107h-45zM435 807l105 107h64l-124 -107h-45z" />
    <glyph glyph-name="ohungarumlaut" unicode="&#x151;" horiz-adv-x="580" 
d="M290 -10c-45.333 0 -86.666 11.333 -123.999 34s-66.833 53.5 -88.5 92.5s-32.5 82.167 -32.5 129.5c0 48 10.833 91.333 32.5 130s51.167 69.334 88.5 92.001s78.666 34 123.999 34c46 0 87.5 -11.333 124.5 -34s66.333 -53.334 88 -92.001s32.5 -82 32.5 -130
c0 -47.333 -10.833 -90.5 -32.5 -129.5s-51 -69.833 -88 -92.5s-78.5 -34 -124.5 -34zM290 32c37.333 0 71.166 9.5 101.499 28.5s54.333 44.667 72 77s26.5 68.5 26.5 108.5s-8.83301 76.167 -26.5 108.5s-41.667 58 -72 77s-64.166 28.5 -101.499 28.5
s-71.166 -9.5 -101.499 -28.5s-54.333 -44.667 -72 -77s-26.5 -68.5 -26.5 -108.5s8.83301 -76.167 26.5 -108.5s41.667 -58 72 -77s64.166 -28.5 101.499 -28.5zM174 599l106 107h63l-124 -107h-45zM321 599l105 107h64l-124 -107h-45z" />
    <glyph glyph-name="OE" unicode="&#x152;" horiz-adv-x="1078" 
d="M393 0c-48 0 -92.833 8.99805 -134.5 26.998s-78.334 42.833 -110.001 74.5s-56.334 68.834 -74.001 111.501s-26.5 88.334 -26.5 137.001c0 49.333 8.83301 95.166 26.5 137.499s42.334 79.333 74.001 111s68.334 56.5 110.001 74.5s86.5 27 134.5 27h650v-43h-489
c51.333 -26.667 93.666 -64.667 126.999 -114s52 -105.333 56 -168h180v-43h-179c-3.33301 -64.667 -22.166 -122.167 -56.499 -172.5s-77.833 -89.166 -130.5 -116.499h496v-43h-654zM393 42.998c42 0 81 7.83301 117 23.5s67.667 37.334 95 65.001s48.5 60.167 63.5 97.5
s22.5 77.666 22.5 120.999s-7.5 83.666 -22.5 120.999s-36.167 69.833 -63.5 97.5s-59 49.334 -95 65.001s-75 23.5 -117 23.5s-81 -7.83301 -117 -23.5s-67.667 -37.334 -95 -65.001s-48.5 -60.167 -63.5 -97.5s-22.5 -77.666 -22.5 -120.999s7.5 -83.666 22.5 -120.999
s36.167 -69.833 63.5 -97.5s59 -49.334 95 -65.001s75 -23.5 117 -23.5z" />
    <glyph glyph-name="oe" unicode="&#x153;" horiz-adv-x="1000" 
d="M290 -10c-45.333 0 -86.6631 11.332 -123.996 33.999s-66.833 53.5 -88.5 92.5s-32.5 82.167 -32.5 129.5c0 48 10.833 91.333 32.5 130s51.167 69.334 88.5 92.001s78.666 34 123.999 34c50 0 94.833 -13.833 134.5 -41.5s68.834 -64.167 87.501 -109.5
c18.667 45.333 47.5 81.833 86.5 109.5s83.5 41.5 133.5 41.5c42.667 0 80.667 -11.333 114 -34s59.833 -52.834 79.5 -90.501s29.5 -79.5 29.5 -125.5v-18h-419c2 -38 12.167 -72.167 30.5 -102.5s42.166 -54.5 71.499 -72.5s62 -27 98 -27c28 0 55.667 4.5 83 13.5
s50.666 21.167 69.999 36.5l26 -35c-26.667 -19.333 -55 -33.666 -85 -42.999s-61.333 -14 -94 -14c-50.667 0 -95.834 14 -135.501 42s-69.167 64.667 -88.5 110c-18.667 -44.667 -47.834 -81.167 -87.501 -109.5s-84.5 -42.5 -134.5 -42.5zM290.003 31.999
c37.333 0 71.166 9.5 101.499 28.5s54.333 44.667 72 77s26.5 68.5 26.5 108.5s-8.83301 76.167 -26.5 108.5s-41.667 58 -72 77s-64.166 28.5 -101.499 28.5s-71.166 -9.5 -101.499 -28.5s-54.333 -44.667 -72 -77s-26.5 -68.5 -26.5 -108.5s8.83301 -76.167 26.5 -108.5
s41.667 -58 72 -77s64.166 -28.5 101.499 -28.5zM538.003 275.999l370.001 -0.000976562c-3.33301 34 -13 64.833 -29 92.5s-36.667 49.834 -62 66.501s-54 25 -86 25c-34 0 -64.833 -8 -92.5 -24s-50.334 -37.833 -68.001 -65.5s-28.5 -59.167 -32.5 -94.5z" />
    <glyph glyph-name="Racute" unicode="&#x154;" horiz-adv-x="629" 
d="M83 0v700h282c47.333 0 87.5 -8.5 120.5 -25.5s58 -40 75 -69s25.5 -62.167 25.5 -99.5c0 -45.333 -13 -85 -39 -119s-63.667 -56.667 -113 -68l155 -319h-50l-151 312h-259v-312h-46zM129 355h233c57.333 0 101.166 14.5 131.499 43.5s45.5 64.833 45.5 107.5
c0 43.333 -15.167 79.333 -45.5 108s-74.166 43 -131.499 43h-233v-302zM272 804l96 110h67l-119 -110h-44z" />
    <glyph glyph-name="racute" unicode="&#x155;" horiz-adv-x="318" 
d="M69 1l0.000976562 492h44v-78c14 27.333 33.167 48.833 57.5 64.5s51.833 23.5 82.5 23.5c13.333 0 27.666 -1.33301 42.999 -4v-45c-7.33301 2.66699 -14.666 4.5 -21.999 5.5s-14.333 1.5 -21 1.5c-32.667 0 -60.834 -9.83301 -84.501 -29.5
s-42.167 -48.167 -55.5 -85.5v-345h-44zM125.001 597l96 110h67l-119 -110h-44z" />
    <glyph glyph-name="Rcommaaccent" unicode="&#x156;" horiz-adv-x="629" 
d="M83 0v700h282c47.333 0 87.5 -8.5 120.5 -25.5s58 -40 75 -69s25.5 -62.167 25.5 -99.5c0 -45.333 -13 -85 -39 -119s-63.667 -56.667 -113 -68l155 -319h-50l-151 312h-259v-312h-46zM129 355h233c57.333 0 101.166 14.5 131.499 43.5s45.5 64.833 45.5 107.5
c0 43.333 -15.167 79.333 -45.5 108s-74.166 43 -131.499 43h-233v-302zM246 -254l36 168h50l-51 -168h-35z" />
    <glyph glyph-name="rcommaaccent" unicode="&#x157;" horiz-adv-x="318" 
d="M69 1l0.000976562 492h44v-78c14 27.333 33.167 48.833 57.5 64.5s51.833 23.5 82.5 23.5c13.333 0 27.666 -1.33301 42.999 -4v-45c-7.33301 2.66699 -14.666 4.5 -21.999 5.5s-14.333 1.5 -21 1.5c-32.667 0 -60.834 -9.83301 -84.501 -29.5
s-42.167 -48.167 -55.5 -85.5v-345h-44zM31.001 -253l36 168h50l-51 -168h-35z" />
    <glyph glyph-name="Rcaron" unicode="&#x158;" horiz-adv-x="629" 
d="M83 0v700h282c47.333 0 87.5 -8.5 120.5 -25.5s58 -40 75 -69s25.5 -62.167 25.5 -99.5c0 -45.333 -13 -85 -39 -119s-63.667 -56.667 -113 -68l155 -319h-50l-151 312h-259v-312h-46zM129 355h233c57.333 0 101.166 14.5 131.499 43.5s45.5 64.833 45.5 107.5
c0 43.333 -15.167 79.333 -45.5 108s-74.166 43 -131.499 43h-233v-302zM221 916l86 -83l86 83h39l-99 -114h-52l-99 114h39z" />
    <glyph glyph-name="rcaron" unicode="&#x159;" horiz-adv-x="318" 
d="M69 1l0.000976562 492h44v-78c14 27.333 33.167 48.833 57.5 64.5s51.833 23.5 82.5 23.5c13.333 0 27.666 -1.33301 42.999 -4v-45c-7.33301 2.66699 -14.666 4.5 -21.999 5.5s-14.333 1.5 -21 1.5c-32.667 0 -60.834 -9.83301 -84.501 -29.5
s-42.167 -48.167 -55.5 -85.5v-345h-44zM74.001 709l86 -83l86 83h39l-99 -114h-52l-99 114h39z" />
    <glyph glyph-name="Sacute" unicode="&#x15a;" horiz-adv-x="586" 
d="M300 -11c-56 0 -108.331 11.498 -156.998 34.498s-91.334 56.167 -128.001 99.5l36 30c33.333 -39.333 71.166 -69.333 113.499 -90s87.5 -31 135.5 -31c40 0 75.667 7 107 21s56 33.167 74 57.5s27 51.833 27 82.5c0 40.667 -13.833 71.834 -41.5 93.501
s-74.167 37.834 -139.5 48.501l-85 14c-70 11.333 -121.333 31 -154 59s-49 66.333 -49 115c0 37.333 9.83301 70 29.5 98s47.167 50 82.5 66s75.666 24 120.999 24c46 0 92 -7.83301 138 -23.5s89.667 -38.834 131 -69.501l-28 -38c-78.667 58.667 -159 88 -241 88
c-36 0 -68 -6 -96 -18s-50 -28.833 -66 -50.5s-24 -46.5 -24 -74.5c0 -36.667 12.333 -65.167 37 -85.5s66 -35.166 124 -44.499l85 -14c79.333 -12.667 136.333 -33.834 171 -63.501s52 -72.167 52 -127.5c0 -38.667 -11 -73.167 -33 -103.5s-52.167 -54.166 -90.5 -71.499
s-82.166 -26 -131.499 -26zM237.002 805.998l96 110h67l-119 -110h-44z" />
    <glyph glyph-name="sacute" unicode="&#x15b;" horiz-adv-x="423" 
d="M208 -10c-38 0 -74.166 6.83398 -108.499 20.501s-63.166 33.5 -86.499 59.5l34 28c20 -20.667 44.167 -37 72.5 -49s57.833 -18 88.5 -18c45.333 0 81.833 9.83301 109.5 29.5s41.5 45.167 41.5 76.5c0 23.333 -8.33301 42.666 -25 57.999s-43.667 25.333 -81 30l-81 10
c-46.667 5.33301 -82.167 19 -106.5 41s-36.5 51.333 -36.5 88c0 27.333 7.33301 51.333 22 72s35.167 36.834 61.5 48.501s56.833 17.5 91.5 17.5c33.333 0 65.333 -5 96 -15s61.667 -26.333 93 -49l-26 -36c-28 20 -54.833 34.833 -80.5 44.5s-52.834 14.5 -81.501 14.5
c-38.667 0 -70.334 -8.16699 -95.001 -24.5s-37 -40.5 -37 -72.5c0 -24 8.16699 -43.333 24.5 -58s42.833 -24.334 79.5 -29.001l80 -10c49.333 -6 86 -20.333 110 -43s36 -51.667 36 -87c0 -28 -8.33301 -53.167 -25 -75.5s-39.5 -39.833 -68.5 -52.5
s-62.833 -19 -101.5 -19zM178.001 596.001l96 110h67l-119 -110h-44z" />
    <glyph glyph-name="Scircumflex" unicode="&#x15c;" horiz-adv-x="586" 
d="M300 -11c-56 0 -108.331 11.498 -156.998 34.498s-91.334 56.167 -128.001 99.5l36 30c33.333 -39.333 71.166 -69.333 113.499 -90s87.5 -31 135.5 -31c40 0 75.667 7 107 21s56 33.167 74 57.5s27 51.833 27 82.5c0 40.667 -13.833 71.834 -41.5 93.501
s-74.167 37.834 -139.5 48.501l-85 14c-70 11.333 -121.333 31 -154 59s-49 66.333 -49 115c0 37.333 9.83301 70 29.5 98s47.167 50 82.5 66s75.666 24 120.999 24c46 0 92 -7.83301 138 -23.5s89.667 -38.834 131 -69.501l-28 -38c-78.667 58.667 -159 88 -241 88
c-36 0 -68 -6 -96 -18s-50 -28.833 -66 -50.5s-24 -46.5 -24 -74.5c0 -36.667 12.333 -65.167 37 -85.5s66 -35.166 124 -44.499l85 -14c79.333 -12.667 136.333 -33.834 171 -63.501s52 -72.167 52 -127.5c0 -38.667 -11 -73.167 -33 -103.5s-52.167 -54.166 -90.5 -71.499
s-82.166 -26 -131.499 -26zM360.002 800.998l-88 83l-88 -83h-37l99 115h52l99 -115h-37z" />
    <glyph glyph-name="scircumflex" unicode="&#x15d;" horiz-adv-x="423" 
d="M208 -10c-38 0 -74.166 6.83398 -108.499 20.501s-63.166 33.5 -86.499 59.5l34 28c20 -20.667 44.167 -37 72.5 -49s57.833 -18 88.5 -18c45.333 0 81.833 9.83301 109.5 29.5s41.5 45.167 41.5 76.5c0 23.333 -8.33301 42.666 -25 57.999s-43.667 25.333 -81 30l-81 10
c-46.667 5.33301 -82.167 19 -106.5 41s-36.5 51.333 -36.5 88c0 27.333 7.33301 51.333 22 72s35.167 36.834 61.5 48.501s56.833 17.5 91.5 17.5c33.333 0 65.333 -5 96 -15s61.667 -26.333 93 -49l-26 -36c-28 20 -54.833 34.833 -80.5 44.5s-52.834 14.5 -81.501 14.5
c-38.667 0 -70.334 -8.16699 -95.001 -24.5s-37 -40.5 -37 -72.5c0 -24 8.16699 -43.333 24.5 -58s42.833 -24.334 79.5 -29.001l80 -10c49.333 -6 86 -20.333 110 -43s36 -51.667 36 -87c0 -28 -8.33301 -53.167 -25 -75.5s-39.5 -39.833 -68.5 -52.5
s-62.833 -19 -101.5 -19zM301.001 591.001l-88 83l-88 -83h-37l99 115h52l99 -115h-37z" />
    <glyph glyph-name="Scedilla" unicode="&#x15e;" horiz-adv-x="586" 
d="M287 -222c-44.667 0 -80.6631 12.6641 -107.996 37.9971l23 25c27.333 -21.333 55.666 -32 84.999 -32c21.333 0 38.166 4.83301 50.499 14.5s18.5 22.834 18.5 39.501c0 15.333 -6.66699 27.5 -20 36.5s-32 13.5 -56 13.5h-23l21 77
c-51.333 2.66699 -99.5 15.334 -144.5 38.001s-84.5 54.334 -118.5 95.001l36 30c33.333 -39.333 71.166 -69.333 113.499 -90s87.5 -31 135.5 -31c40 0 75.667 7 107 21s56 33.167 74 57.5s27 51.833 27 82.5c0 40.667 -13.833 71.834 -41.5 93.501
s-74.167 37.834 -139.5 48.501l-85 14c-70 11.333 -121.333 31 -154 59s-49 66.333 -49 115c0 37.333 9.83301 70 29.5 98s47.167 50 82.5 66s75.666 24 120.999 24c46 0 92 -7.83301 138 -23.5s89.667 -38.834 131 -69.501l-28 -38c-78.667 58.667 -159 88 -241 88
c-36 0 -68 -6 -96 -18s-50 -28.833 -66 -50.5s-24 -46.5 -24 -74.5c0 -36.667 12.333 -65.167 37 -85.5s66 -35.166 124 -44.499l85 -14c79.333 -12.667 136.333 -33.834 171 -63.501s52 -72.167 52 -127.5c0 -38 -10.5 -71.833 -31.5 -101.5s-49.833 -53.334 -86.5 -71.001
s-78.667 -27.167 -126 -28.5l-13 -47c28.667 -0.666992 51.667 -8 69 -22s26 -32.667 26 -56c0 -25.333 -9.83301 -46 -29.5 -62s-45.167 -24 -76.5 -24z" />
    <glyph glyph-name="scedilla" unicode="&#x15f;" horiz-adv-x="423" 
d="M202 -224c-44.667 0 -80.6631 12.6689 -107.996 38.002l23 25c27.333 -21.333 55.666 -32 84.999 -32c21.333 0 38.166 4.83301 50.499 14.5s18.5 22.834 18.5 39.501c0 15.333 -6.66699 27.5 -20 36.5s-32 13.5 -56 13.5h-23l21 79
c-34.667 2 -67.834 9.66699 -99.501 23s-58.5 32.333 -80.5 57l34 28c20 -20.667 44.167 -36.834 72.5 -48.501s57.833 -17.5 88.5 -17.5c45.333 0 81.833 9.83301 109.5 29.5s41.5 44.834 41.5 75.501c0 23.333 -8.33301 42.666 -25 57.999s-43.667 25.333 -81 30l-81 10
c-46.667 5.33301 -82.167 19.166 -106.5 41.499s-36.5 51.833 -36.5 88.5c0 27.333 7.33301 51.166 22 71.499s35.167 36.333 61.5 48s56.833 17.5 91.5 17.5c33.333 0 65.333 -5 96 -15s61.667 -26.333 93 -49l-26 -36c-28 20 -54.833 34.667 -80.5 44
s-52.834 14 -81.501 14c-38.667 0 -70.334 -8.16699 -95.001 -24.5s-37 -40.166 -37 -71.499c0 -24 8.16699 -43.333 24.5 -58s42.833 -24.334 79.5 -29.001l80 -10c49.333 -6 86 -20.5 110 -43.5s36 -52.167 36 -87.5c0 -26 -7.5 -49.5 -22.5 -70.5
s-35.667 -38.167 -62 -51.5s-57.166 -21 -92.499 -23l-13 -51c28.667 -0.666992 51.667 -8 69 -22s26 -32.667 26 -56c0 -25.333 -9.83301 -46 -29.5 -62s-45.167 -24 -76.5 -24z" />
    <glyph glyph-name="Scaron" unicode="&#x160;" horiz-adv-x="586" 
d="M300 -11c-56 0 -108.331 11.498 -156.998 34.498s-91.334 56.167 -128.001 99.5l36 30c33.333 -39.333 71.166 -69.333 113.499 -90s87.5 -31 135.5 -31c40 0 75.667 7 107 21s56 33.167 74 57.5s27 51.833 27 82.5c0 40.667 -13.833 71.834 -41.5 93.501
s-74.167 37.834 -139.5 48.501l-85 14c-70 11.333 -121.333 31 -154 59s-49 66.333 -49 115c0 37.333 9.83301 70 29.5 98s47.167 50 82.5 66s75.666 24 120.999 24c46 0 92 -7.83301 138 -23.5s89.667 -38.834 131 -69.501l-28 -38c-78.667 58.667 -159 88 -241 88
c-36 0 -68 -6 -96 -18s-50 -28.833 -66 -50.5s-24 -46.5 -24 -74.5c0 -36.667 12.333 -65.167 37 -85.5s66 -35.166 124 -44.499l85 -14c79.333 -12.667 136.333 -33.834 171 -63.501s52 -72.167 52 -127.5c0 -38.667 -11 -73.167 -33 -103.5s-52.167 -54.166 -90.5 -71.499
s-82.166 -26 -131.499 -26zM186.002 917.998l86 -83l86 83h39l-99 -114h-52l-99 114h39z" />
    <glyph glyph-name="scaron" unicode="&#x161;" horiz-adv-x="423" 
d="M208 -10c-38 0 -74.166 6.83398 -108.499 20.501s-63.166 33.5 -86.499 59.5l34 28c20 -20.667 44.167 -37 72.5 -49s57.833 -18 88.5 -18c45.333 0 81.833 9.83301 109.5 29.5s41.5 45.167 41.5 76.5c0 23.333 -8.33301 42.666 -25 57.999s-43.667 25.333 -81 30l-81 10
c-46.667 5.33301 -82.167 19 -106.5 41s-36.5 51.333 -36.5 88c0 27.333 7.33301 51.333 22 72s35.167 36.834 61.5 48.501s56.833 17.5 91.5 17.5c33.333 0 65.333 -5 96 -15s61.667 -26.333 93 -49l-26 -36c-28 20 -54.833 34.833 -80.5 44.5s-52.834 14.5 -81.501 14.5
c-38.667 0 -70.334 -8.16699 -95.001 -24.5s-37 -40.5 -37 -72.5c0 -24 8.16699 -43.333 24.5 -58s42.833 -24.334 79.5 -29.001l80 -10c49.333 -6 86 -20.333 110 -43s36 -51.667 36 -87c0 -28 -8.33301 -53.167 -25 -75.5s-39.5 -39.833 -68.5 -52.5
s-62.833 -19 -101.5 -19zM127.001 708.001l86 -83l86 83h39l-99 -114h-52l-99 114h39z" />
    <glyph glyph-name="Tcedilla" unicode="&#x162;" 
d="M289 -224c-44.667 0 -80.665 12.666 -107.998 37.999l23 25c27.333 -21.333 55.666 -32 84.999 -32c21.333 0 38.166 4.83301 50.499 14.5s18.5 22.834 18.5 39.501c0 15.333 -6.66699 27.5 -20 36.5s-32 13.5 -56 13.5h-23l24 89h-6v657h-260v43h566v-43h-260v-657h-7
l-16 -60c28.667 -0.666992 51.667 -8 69 -22s26 -32.667 26 -56c0 -25.333 -9.83301 -46 -29.5 -62s-45.167 -24 -76.5 -24z" />
    <glyph glyph-name="tcedilla" unicode="&#x163;" horiz-adv-x="338" 
d="M198 -224c-44.667 0 -80.665 12.666 -107.998 37.999l23 25c27.333 -21.333 55.666 -32 84.999 -32c21.333 0 38.166 4.83301 50.499 14.5s18.5 22.834 18.5 39.501c0 15.333 -6.66699 27.5 -20 36.5s-32 13.5 -56 13.5h-23l23 86c-44 14 -66 47 -66 99v356h-108v40h108
v124l44 14v-138h152v-40h-152v-341c0 -28 6.16699 -48.167 18.5 -60.5s32.833 -18.5 61.5 -18.5c15.333 0 28.333 1.16699 39 3.5s21.667 5.83301 33 10.5v-43c-12.667 -4.66699 -25.667 -8 -39 -10s-27 -3 -41 -3h-9c-3.33301 0 -6.33301 0.333008 -9 1l-14 -51
c28.667 -0.666992 51.667 -8 69 -22s26 -32.667 26 -56c0 -25.333 -9.83301 -46 -29.5 -62s-45.167 -24 -76.5 -24z" />
    <glyph glyph-name="Tcaron" unicode="&#x164;" 
d="M277 0v657h-260v43h566v-43h-260v-657h-46zM214 916l86 -83l86 83h39l-99 -114h-52l-99 114h39z" />
    <glyph glyph-name="tcaron" unicode="&#x165;" horiz-adv-x="338" 
d="M232 552l2 148l48 10l-17 -158h-33zM241 -10c-37.333 0 -66 9.33301 -86 28s-30 44.667 -30 78v356h-108v40h108v124l44 14v-138h152v-40h-152v-341c0 -28 6.16699 -48.167 18.5 -60.5s32.833 -18.5 61.5 -18.5c15.333 0 28.333 1.16699 39 3.5s21.667 5.83301 33 10.5
v-43c-12.667 -4.66699 -25.667 -8 -39 -10s-27 -3 -41 -3z" />
    <glyph glyph-name="Tbar" unicode="&#x166;" 
d="M277 0v334h-164v41h164v282h-260v43h566v-43h-260v-282h164v-41h-164v-334h-46z" />
    <glyph glyph-name="tbar" unicode="&#x167;" horiz-adv-x="338" 
d="M241 -10c-37.333 0 -66 9.33301 -86 28s-30 44.667 -30 78v173h-108v37h108v146h-108v40h108v124l44 14v-138h152v-40h-152v-146h152v-37h-152v-158c0 -28 6.16699 -48.167 18.5 -60.5s32.833 -18.5 61.5 -18.5c15.333 0 28.333 1.16699 39 3.5s21.667 5.83301 33 10.5
v-43c-12.667 -4.66699 -25.667 -8 -39 -10s-27 -3 -41 -3z" />
    <glyph glyph-name="Utilde" unicode="&#x168;" horiz-adv-x="694" 
d="M347 -11c-55.333 0 -104 11.833 -146 35.5s-74.667 58.167 -98 103.5s-35 100.333 -35 165v407h46v-407c0 -55.333 10 -102.5 30 -141.5s47.5 -68.667 82.5 -89s75.167 -30.5 120.5 -30.5s85.5 10.167 120.5 30.5s62.5 50 82.5 89s30 86.167 30 141.5v407h46v-407
c0 -64.667 -11.667 -119.667 -35 -165s-56 -79.833 -98 -103.5s-90.667 -35.5 -146 -35.5zM227 801l-37.001 6.00098c13.333 60 42 90 86 90c17.333 0 34.166 -4.83301 50.499 -14.5l48 -28.5c15.667 -9.33301 30.5 -14 44.5 -14c11.333 0 20.833 4.33301 28.5 13
s13.834 23.667 18.501 45l37 -6c-6.66699 -30.667 -17.5 -53.334 -32.5 -68.001s-33.167 -22 -54.5 -22c-16.667 0 -33.167 4.66699 -49.5 14s-32.166 18.833 -47.499 28.5s-30.333 14.5 -45 14.5c-12.667 0 -22.5 -4.33301 -29.5 -13s-12.833 -23.667 -17.5 -45z" />
    <glyph glyph-name="utilde" unicode="&#x169;" horiz-adv-x="529" 
d="M254 -10c-36.667 0 -69.167 7.83496 -97.5 23.502s-50.5 37.667 -66.5 66s-24 61.166 -24 98.499v314h44v-302c0 -48.667 13.667 -87.334 41 -116.001s65 -43 113 -43c33.333 0 63.333 8 90 24s47.667 38.333 63 67v370h44v-492h-44v68c-38.667 -52 -93 -78 -163 -78z
M144 593.002l-37.001 6.00098c13.333 60 42 90 86 90c17.333 0 34.166 -4.83301 50.499 -14.5l48 -28.5c15.667 -9.33301 30.5 -14 44.5 -14c11.333 0 20.833 4.33301 28.5 13s13.834 23.667 18.501 45l37 -6c-6.66699 -30.667 -17.5 -53.334 -32.5 -68.001
s-33.167 -22 -54.5 -22c-16.667 0 -33.167 4.66699 -49.5 14s-32.166 18.833 -47.499 28.5s-30.333 14.5 -45 14.5c-12.667 0 -22.5 -4.33301 -29.5 -13s-12.833 -23.667 -17.5 -45z" />
    <glyph glyph-name="Umacron" unicode="&#x16a;" horiz-adv-x="694" 
d="M347 -11c-55.333 0 -104 11.833 -146 35.5s-74.667 58.167 -98 103.5s-35 100.333 -35 165v407h46v-407c0 -55.333 10 -102.5 30 -141.5s47.5 -68.667 82.5 -89s75.167 -30.5 120.5 -30.5s85.5 10.167 120.5 30.5s62.5 50 82.5 89s30 86.167 30 141.5v407h46v-407
c0 -64.667 -11.667 -119.667 -35 -165s-56 -79.833 -98 -103.5s-90.667 -35.5 -146 -35.5zM214 828v37h267v-37h-267z" />
    <glyph glyph-name="umacron" unicode="&#x16b;" horiz-adv-x="529" 
d="M254 -10c-36.667 0 -69.167 7.83496 -97.5 23.502s-50.5 37.667 -66.5 66s-24 61.166 -24 98.499v314h44v-302c0 -48.667 13.667 -87.334 41 -116.001s65 -43 113 -43c33.333 0 63.333 8 90 24s47.667 38.333 63 67v370h44v-492h-44v68c-38.667 -52 -93 -78 -163 -78z
M131 620.002v37h267v-37h-267z" />
    <glyph glyph-name="Ubreve" unicode="&#x16c;" horiz-adv-x="694" 
d="M347 -11c-55.333 0 -104 11.833 -146 35.5s-74.667 58.167 -98 103.5s-35 100.333 -35 165v407h46v-407c0 -55.333 10 -102.5 30 -141.5s47.5 -68.667 82.5 -89s75.167 -30.5 120.5 -30.5s85.5 10.167 120.5 30.5s62.5 50 82.5 89s30 86.167 30 141.5v407h46v-407
c0 -64.667 -11.667 -119.667 -35 -165s-56 -79.833 -98 -103.5s-90.667 -35.5 -146 -35.5zM347 796c-37.333 0 -68.6699 10.666 -94.0029 31.999s-42 50 -50 86l37 8c14.667 -60 50.334 -90 107.001 -90c27.333 0 50.333 7.83301 69 23.5s31.334 37.834 38.001 66.501l37 -8
c-7.33301 -36 -23.666 -64.667 -48.999 -86s-57 -32 -95 -32z" />
    <glyph glyph-name="ubreve" unicode="&#x16d;" horiz-adv-x="529" 
d="M254 -10c-36.667 0 -69.167 7.83496 -97.5 23.502s-50.5 37.667 -66.5 66s-24 61.166 -24 98.499v314h44v-302c0 -48.667 13.667 -87.334 41 -116.001s65 -43 113 -43c33.333 0 63.333 8 90 24s47.667 38.333 63 67v370h44v-492h-44v68c-38.667 -52 -93 -78 -163 -78z
M264 588.002c-37.333 0 -68.6699 10.666 -94.0029 31.999s-42 50 -50 86l37 8c14.667 -60 50.334 -90 107.001 -90c27.333 0 50.333 7.83301 69 23.5s31.334 37.834 38.001 66.501l37 -8c-7.33301 -36 -23.666 -64.667 -48.999 -86s-57 -32 -95 -32z" />
    <glyph glyph-name="Uring" unicode="&#x16e;" horiz-adv-x="694" 
d="M347 -11c-55.333 0 -104 11.833 -146 35.5s-74.667 58.167 -98 103.5s-35 100.333 -35 165v407h46v-407c0 -55.333 10 -102.5 30 -141.5s47.5 -68.667 82.5 -89s75.167 -30.5 120.5 -30.5s85.5 10.167 120.5 30.5s62.5 50 82.5 89s30 86.167 30 141.5v407h46v-407
c0 -64.667 -11.667 -119.667 -35 -165s-56 -79.833 -98 -103.5s-90.667 -35.5 -146 -35.5zM347 789c-20 0 -38.001 4.83301 -54.001 14.5s-28.667 22.667 -38 39s-14 34.166 -14 53.499s4.66699 37 14 53s22 28.833 38 38.5s34 14.5 54 14.5
c20.667 0 38.834 -4.83301 54.501 -14.5s28.167 -22.5 37.5 -38.5s14 -33.667 14 -53s-4.66699 -37.166 -14 -53.499s-22 -29.333 -38 -39s-34 -14.5 -54 -14.5zM346.999 822c20 0 36.998 7.16699 50.998 21.5s21 31.833 21 52.5s-7.16699 38 -21.5 52
s-31.166 21 -50.499 21c-20 0 -37 -7 -51 -21s-21 -31.333 -21 -52s6.83301 -38.167 20.5 -52.5s30.834 -21.5 51.501 -21.5z" />
    <glyph glyph-name="uring" unicode="&#x16f;" horiz-adv-x="529" 
d="M254 -10c-36.667 0 -69.167 7.83496 -97.5 23.502s-50.5 37.667 -66.5 66s-24 61.166 -24 98.499v314h44v-302c0 -48.667 13.667 -87.334 41 -116.001s65 -43 113 -43c33.333 0 63.333 8 90 24s47.667 38.333 63 67v370h44v-492h-44v68c-38.667 -52 -93 -78 -163 -78z
M264 581.002c-20 0 -38.001 4.83301 -54.001 14.5s-28.667 22.667 -38 39s-14 34.166 -14 53.499s4.66699 37 14 53s22 28.833 38 38.5s34 14.5 54 14.5c20.667 0 38.834 -4.83301 54.501 -14.5s28.167 -22.5 37.5 -38.5s14 -33.667 14 -53s-4.66699 -37.166 -14 -53.499
s-22 -29.333 -38 -39s-34 -14.5 -54 -14.5zM263.999 614.002c20 0 36.998 7.16699 50.998 21.5s21 31.833 21 52.5s-7.16699 38 -21.5 52s-31.166 21 -50.499 21c-20 0 -37 -7 -51 -21s-21 -31.333 -21 -52s6.83301 -38.167 20.5 -52.5s30.834 -21.5 51.501 -21.5z" />
    <glyph glyph-name="Uhungarumlaut" unicode="&#x170;" horiz-adv-x="694" 
d="M347 -11c-55.333 0 -104 11.833 -146 35.5s-74.667 58.167 -98 103.5s-35 100.333 -35 165v407h46v-407c0 -55.333 10 -102.5 30 -141.5s47.5 -68.667 82.5 -89s75.167 -30.5 120.5 -30.5s85.5 10.167 120.5 30.5s62.5 50 82.5 89s30 86.167 30 141.5v407h46v-407
c0 -64.667 -11.667 -119.667 -35 -165s-56 -79.833 -98 -103.5s-90.667 -35.5 -146 -35.5zM231 807l106 107h63l-124 -107h-45zM378 807l105 107h64l-124 -107h-45z" />
    <glyph glyph-name="uhungarumlaut" unicode="&#x171;" horiz-adv-x="529" 
d="M254 -10c-36.667 0 -69.167 7.83496 -97.5 23.502s-50.5 37.667 -66.5 66s-24 61.166 -24 98.499v314h44v-302c0 -48.667 13.667 -87.334 41 -116.001s65 -43 113 -43c33.333 0 63.333 8 90 24s47.667 38.333 63 67v370h44v-492h-44v68c-38.667 -52 -93 -78 -163 -78z
M148 599.002l106 107h63l-124 -107h-45zM295 599.002l105 107h64l-124 -107h-45z" />
    <glyph glyph-name="Uogonek" unicode="&#x172;" horiz-adv-x="694" 
d="M372 -221c-30.667 0 -54.333 7.99902 -71 23.999s-25 35.667 -25 59c0 20.667 6.5 41 19.5 61s35.833 42 68.5 66c-58 -2 -109.333 8.33301 -154 31s-79.5 57.167 -104.5 103.5s-37.5 102.833 -37.5 169.5v407h46v-407c0 -55.333 10 -102.5 30 -141.5
s47.5 -68.667 82.5 -89s75.167 -30.5 120.5 -30.5s85.5 10.167 120.5 30.5s62.5 50 82.5 89s30 86.167 30 141.5v407h46v-407c0 -81.333 -18.333 -147.166 -55 -197.499s-86 -82.833 -148 -97.5c-40.667 -26.667 -68.834 -50.334 -84.501 -71.001s-23.5 -40 -23.5 -58
c0 -18.667 5.66699 -32.667 17 -42s26.333 -14 45 -14c9.33301 0 18.333 1.33301 27 4s16.667 6.33398 24 11.001l13 -29c-10 -6.66699 -20.667 -11.667 -32 -15s-23.666 -5 -36.999 -5z" />
    <glyph glyph-name="uogonek" unicode="&#x173;" horiz-adv-x="529" 
d="M406 -221c-30.667 0 -54.334 8.00195 -71.001 24.002s-25 35.667 -25 59c0 22 8.5 44.5 25.5 67.5s44.5 46.5 82.5 70.5h-1v68c-38.667 -52 -93 -78 -163 -78c-36.667 0 -69.167 7.83301 -97.5 23.5s-50.5 37.667 -66.5 66s-24 61.166 -24 98.499v314h44v-302
c0 -48.667 13.667 -87.334 41 -116.001s65 -43 113 -43c33.333 0 63.333 8 90 24s47.667 38.333 63 67v370h44v-492c-42.667 -27.333 -72 -51.333 -88 -72s-24 -40.334 -24 -59.001s5.66699 -32.667 17 -42s26.333 -14 45 -14c9.33301 0 18.333 1.33301 27 4
s16.667 6.33398 24 11.001l13 -29c-10 -6.66699 -20.667 -11.667 -32 -15s-23.666 -5 -36.999 -5z" />
    <glyph glyph-name="Wcircumflex" unicode="&#x174;" horiz-adv-x="884" 
d="M213 0l-186 700h46l164 -624l184 624h46l181 -627l165 627h44l-187 -700h-44l-183 633l-186 -633h-44zM531 799l-88 83l-88 -83h-37l99 115h52l99 -115h-37z" />
    <glyph glyph-name="wcircumflex" unicode="&#x175;" horiz-adv-x="671" 
d="M166 0l-150 492h46l128 -426l125 426h44l124 -427l128 427h44l-150 -492h-44l-125 431l-126 -431h-44zM425 591l-88 83l-88 -83h-37l99 115h52l99 -115h-37z" />
    <glyph glyph-name="Ycircumflex" unicode="&#x176;" horiz-adv-x="609" 
d="M281 0v292l-274 408h55l243 -366l244 366h53l-275 -410v-290h-46zM393 799l-88 83l-88 -83h-37l99 115h52l99 -115h-37z" />
    <glyph glyph-name="ycircumflex" unicode="&#x177;" horiz-adv-x="479" 
d="M75 -212c-7.33301 0 -14.667 0.500977 -22 1.50098l-19 2.5v44c10.667 -2.66699 23.667 -4 39 -4c42 0 75 26.667 99 80l40 90l-205 490h50l179 -437l187 437h49l-256 -584c-12.667 -28.667 -25.834 -51.834 -39.501 -69.501s-28.667 -30.5 -45 -38.5
s-35.166 -12 -56.499 -12zM328.999 591.001l-88 83l-88 -83h-37l99 115h52l99 -115h-37z" />
    <glyph glyph-name="Ydieresis" unicode="&#x178;" horiz-adv-x="609" 
d="M281 0v292l-274 408h55l243 -366l244 366h53l-275 -410v-290h-46zM227 811c-10.667 0 -19.667 3.66699 -27 11s-11 16.333 -11 27s3.66699 19.667 11 27s16.333 11 27 11c11.333 0 20.5 -3.66699 27.5 -11s10.5 -16.333 10.5 -27s-3.5 -19.667 -10.5 -27
s-16.167 -11 -27.5 -11zM383 811c-10.667 0 -19.667 3.66699 -27 11s-11 16.333 -11 27s3.66699 19.667 11 27s16.333 11 27 11c11.333 0 20.5 -3.66699 27.5 -11s10.5 -16.333 10.5 -27s-3.5 -19.667 -10.5 -27s-16.167 -11 -27.5 -11z" />
    <glyph glyph-name="Zacute" unicode="&#x179;" horiz-adv-x="598" 
d="M25 0v35l472 622h-468v43h529v-35l-472 -622h482v-43h-543zM269 804l96 110h67l-119 -110h-44z" />
    <glyph glyph-name="zacute" unicode="&#x17a;" horiz-adv-x="449" 
d="M36 0v39l315 411h-312v42h368v-39l-315 -411h317v-42h-373zM189 596l96 110h67l-119 -110h-44z" />
    <glyph glyph-name="Zdotaccent" unicode="&#x17b;" horiz-adv-x="598" 
d="M25 0v35l472 622h-468v43h529v-35l-472 -622h482v-43h-543zM304 811c-10.667 0 -19.667 3.66699 -27 11s-11 16.333 -11 27s3.66699 19.667 11 27s16.333 11 27 11c11.333 0 20.5 -3.66699 27.5 -11s10.5 -16.333 10.5 -27s-3.5 -19.667 -10.5 -27s-16.167 -11 -27.5 -11
z" />
    <glyph glyph-name="zdotaccent" unicode="&#x17c;" horiz-adv-x="449" 
d="M36 0v39l315 411h-312v42h368v-39l-315 -411h317v-42h-373zM224 603c-10.667 0 -19.667 3.66699 -27 11s-11 16.333 -11 27s3.66699 19.667 11 27s16.333 11 27 11c11.333 0 20.5 -3.66699 27.5 -11s10.5 -16.333 10.5 -27s-3.5 -19.667 -10.5 -27s-16.167 -11 -27.5 -11
z" />
    <glyph glyph-name="Zcaron" unicode="&#x17d;" horiz-adv-x="598" 
d="M25 0v35l472 622h-468v43h529v-35l-472 -622h482v-43h-543zM218 916l86 -83l86 83h39l-99 -114h-52l-99 114h39z" />
    <glyph glyph-name="zcaron" unicode="&#x17e;" horiz-adv-x="449" 
d="M36 0v39l315 411h-312v42h368v-39l-315 -411h317v-42h-373zM138 708l86 -83l86 83h39l-99 -114h-52l-99 114h39z" />
    <glyph glyph-name="Scommaaccent" unicode="&#x218;" horiz-adv-x="586" 
d="M300 -11c-56 0 -108.331 11.498 -156.998 34.498s-91.334 56.167 -128.001 99.5l36 30c33.333 -39.333 71.166 -69.333 113.499 -90s87.5 -31 135.5 -31c40 0 75.667 7 107 21s56 33.167 74 57.5s27 51.833 27 82.5c0 40.667 -13.833 71.834 -41.5 93.501
s-74.167 37.834 -139.5 48.501l-85 14c-70 11.333 -121.333 31 -154 59s-49 66.333 -49 115c0 37.333 9.83301 70 29.5 98s47.167 50 82.5 66s75.666 24 120.999 24c46 0 92 -7.83301 138 -23.5s89.667 -38.834 131 -69.501l-28 -38c-78.667 58.667 -159 88 -241 88
c-36 0 -68 -6 -96 -18s-50 -28.833 -66 -50.5s-24 -46.5 -24 -74.5c0 -36.667 12.333 -65.167 37 -85.5s66 -35.166 124 -44.499l85 -14c79.333 -12.667 136.333 -33.834 171 -63.501s52 -72.167 52 -127.5c0 -38.667 -11 -73.167 -33 -103.5s-52.167 -54.166 -90.5 -71.499
s-82.166 -26 -131.499 -26zM237.002 -252.002l36 168h50l-51 -168h-35z" />
    <glyph glyph-name="scommaaccent" unicode="&#x219;" horiz-adv-x="423" 
d="M208 -10c-38 0 -74.166 6.83398 -108.499 20.501s-63.166 33.5 -86.499 59.5l34 28c20 -20.667 44.167 -37 72.5 -49s57.833 -18 88.5 -18c45.333 0 81.833 9.83301 109.5 29.5s41.5 45.167 41.5 76.5c0 23.333 -8.33301 42.666 -25 57.999s-43.667 25.333 -81 30l-81 10
c-46.667 5.33301 -82.167 19 -106.5 41s-36.5 51.333 -36.5 88c0 27.333 7.33301 51.333 22 72s35.167 36.834 61.5 48.501s56.833 17.5 91.5 17.5c33.333 0 65.333 -5 96 -15s61.667 -26.333 93 -49l-26 -36c-28 20 -54.833 34.833 -80.5 44.5s-52.834 14.5 -81.501 14.5
c-38.667 0 -70.334 -8.16699 -95.001 -24.5s-37 -40.5 -37 -72.5c0 -24 8.16699 -43.333 24.5 -58s42.833 -24.334 79.5 -29.001l80 -10c49.333 -6 86 -20.333 110 -43s36 -51.667 36 -87c0 -28 -8.33301 -53.167 -25 -75.5s-39.5 -39.833 -68.5 -52.5
s-62.833 -19 -101.5 -19zM152.001 -253.999l36 168h50l-51 -168h-35z" />
    <glyph glyph-name="uni021A" unicode="&#x21a;" 
d="M277 0v657h-260v43h566v-43h-260v-657h-46zM239 -254l36 168h50l-51 -168h-35z" />
    <glyph glyph-name="uni021B" unicode="&#x21b;" horiz-adv-x="338" 
d="M241 -10c-37.333 0 -66 9.33301 -86 28s-30 44.667 -30 78v356h-108v40h108v124l44 14v-138h152v-40h-152v-341c0 -28 6.16699 -48.167 18.5 -60.5s32.833 -18.5 61.5 -18.5c15.333 0 28.333 1.16699 39 3.5s21.667 5.83301 33 10.5v-43
c-12.667 -4.66699 -25.667 -8 -39 -10s-27 -3 -41 -3zM148 -254l36 168h50l-51 -168h-35z" />
    <glyph glyph-name="dotlessj" unicode="&#x237;" horiz-adv-x="180" 
d="M3 -214c-6.66699 0 -12.667 0.333008 -18 1s-11.333 1.33398 -18 2.00098v44c10.667 -2.66699 22.334 -4 35.001 -4c23.333 0 40.166 5.66699 50.499 17s15.5 30.333 15.5 57v589h44v-595c0 -34.667 -9.16699 -61.834 -27.5 -81.501s-45.5 -29.5 -81.5 -29.5z" />
    <glyph glyph-name="uni02BB" unicode="&#x2bb;" horiz-adv-x="250" 
d="M170 709l-53 -188h-51l66 188h38z" />
    <glyph glyph-name="uni02BC" unicode="&#x2bc;" horiz-adv-x="250" 
d="M76 521l53 188h51l-66 -188h-38z" />
    <glyph glyph-name="circumflex" unicode="&#x2c6;" 
d="M388 591l-88 83l-88 -83h-37l99 115h52l99 -115h-37z" />
    <glyph glyph-name="caron" unicode="&#x2c7;" 
d="M214 708l86 -83l86 83h39l-99 -114h-52l-99 114h39z" />
    <glyph glyph-name="breve" unicode="&#x2d8;" 
d="M300 588c-37.333 0 -68.6699 10.666 -94.0029 31.999s-42 50 -50 86l37 8c14.667 -60 50.334 -90 107.001 -90c27.333 0 50.333 7.83301 69 23.5s31.334 37.834 38.001 66.501l37 -8c-7.33301 -36 -23.666 -64.667 -48.999 -86s-57 -32 -95 -32z" />
    <glyph glyph-name="dotaccent" unicode="&#x2d9;" 
d="M300 603c-10.667 0 -19.667 3.66699 -27 11s-11 16.333 -11 27s3.66699 19.667 11 27s16.333 11 27 11c11.333 0 20.5 -3.66699 27.5 -11s10.5 -16.333 10.5 -27s-3.5 -19.667 -10.5 -27s-16.167 -11 -27.5 -11z" />
    <glyph glyph-name="ring" unicode="&#x2da;" 
d="M300 581c-20 0 -38.001 4.83301 -54.001 14.5s-28.667 22.667 -38 39s-14 34.166 -14 53.499s4.66699 37 14 53s22 28.833 38 38.5s34 14.5 54 14.5c20.667 0 38.834 -4.83301 54.501 -14.5s28.167 -22.5 37.5 -38.5s14 -33.667 14 -53s-4.66699 -37.166 -14 -53.499
s-22 -29.333 -38 -39s-34 -14.5 -54 -14.5zM299.999 614c20 0 36.998 7.16699 50.998 21.5s21 31.833 21 52.5s-7.16699 38 -21.5 52s-31.166 21 -50.499 21c-20 0 -37 -7 -51 -21s-21 -31.333 -21 -52s6.83301 -38.167 20.5 -52.5s30.834 -21.5 51.501 -21.5z" />
    <glyph glyph-name="ogonek" unicode="&#x2db;" 
d="M293 -221c-30.667 0 -54.333 7.99902 -71 23.999s-25 35.667 -25 59c0 24 9.16699 47.833 27.5 71.5s50.166 50.834 95.499 81.501l28 -15c-42.667 -27.333 -72 -51.333 -88 -72s-24 -40.334 -24 -59.001s5.66699 -32.667 17 -42s26.333 -14 45 -14
c9.33301 0 18.333 1.33301 27 4s16.667 6.33398 24 11.001l13 -29c-10 -6.66699 -20.667 -11.667 -32 -15s-23.666 -5 -36.999 -5z" />
    <glyph glyph-name="tilde" unicode="&#x2dc;" 
d="M180 593l-37.001 6.00098c13.333 60 42 90 86 90c17.333 0 34.166 -4.83301 50.499 -14.5l48 -28.5c15.667 -9.33301 30.5 -14 44.5 -14c11.333 0 20.833 4.33301 28.5 13s13.834 23.667 18.501 45l37 -6c-6.66699 -30.667 -17.5 -53.334 -32.5 -68.001
s-33.167 -22 -54.5 -22c-16.667 0 -33.167 4.66699 -49.5 14s-32.166 18.833 -47.499 28.5s-30.333 14.5 -45 14.5c-12.667 0 -22.5 -4.33301 -29.5 -13s-12.833 -23.667 -17.5 -45z" />
    <glyph glyph-name="hungarumlaut" unicode="&#x2dd;" 
d="M184 599l106 107h63l-124 -107h-45zM331 599l105 107h64l-124 -107h-45z" />
    <glyph glyph-name="uni0327" unicode="&#x327;" horiz-adv-x="0" 
d="M280 -224c-44.667 0 -80.665 12.666 -107.998 37.999l23 25c27.333 -21.333 55.666 -32 84.999 -32c21.333 0 38.166 4.83301 50.499 14.5s18.5 22.834 18.5 39.501c0 15.333 -6.66699 27.5 -20 36.5s-32 13.5 -56 13.5h-23l24 89h33l-16 -60
c28.667 -0.666992 51.667 -8 69 -22s26 -32.667 26 -56c0 -25.333 -9.83301 -46 -29.5 -62s-45.167 -24 -76.5 -24z" />
    <glyph glyph-name="uni0328" unicode="&#x328;" horiz-adv-x="0" 
d="M293 -221c-30.667 0 -54.333 7.99902 -71 23.999s-25 35.667 -25 59c0 24 9.16699 47.833 27.5 71.5s50.166 50.834 95.499 81.501l28 -15c-42.667 -27.333 -72 -51.333 -88 -72s-24 -40.334 -24 -59.001s5.66699 -32.667 17 -42s26.333 -14 45 -14
c9.33301 0 18.333 1.33301 27 4s16.667 6.33398 24 11.001l13 -29c-10 -6.66699 -20.667 -11.667 -32 -15s-23.666 -5 -36.999 -5z" />
    <glyph glyph-name="Wgrave" unicode="&#x1e80;" horiz-adv-x="884" 
d="M213 0l-186 700h46l164 -624l184 624h46l181 -627l165 627h44l-187 -700h-44l-183 633l-186 -633h-44zM434 804l-118 110h68l94 -110h-44z" />
    <glyph glyph-name="wgrave" unicode="&#x1e81;" horiz-adv-x="671" 
d="M166 0l-150 492h46l128 -426l125 426h44l124 -427l128 427h44l-150 -492h-44l-125 431l-126 -431h-44zM328 596l-118 110h68l94 -110h-44z" />
    <glyph glyph-name="Wacute" unicode="&#x1e82;" horiz-adv-x="884" 
d="M213 0l-186 700h46l164 -624l184 624h46l181 -627l165 627h44l-187 -700h-44l-183 633l-186 -633h-44zM408 804l96 110h67l-119 -110h-44z" />
    <glyph glyph-name="wacute" unicode="&#x1e83;" horiz-adv-x="671" 
d="M166 0l-150 492h46l128 -426l125 426h44l124 -427l128 427h44l-150 -492h-44l-125 431l-126 -431h-44zM302 596l96 110h67l-119 -110h-44z" />
    <glyph glyph-name="Wdieresis" unicode="&#x1e84;" horiz-adv-x="884" 
d="M213 0l-186 700h46l164 -624l184 624h46l181 -627l165 627h44l-187 -700h-44l-183 633l-186 -633h-44zM365 811c-10.667 0 -19.667 3.66699 -27 11s-11 16.333 -11 27s3.66699 19.667 11 27s16.333 11 27 11c11.333 0 20.5 -3.66699 27.5 -11s10.5 -16.333 10.5 -27
s-3.5 -19.667 -10.5 -27s-16.167 -11 -27.5 -11zM521 811c-10.667 0 -19.667 3.66699 -27 11s-11 16.333 -11 27s3.66699 19.667 11 27s16.333 11 27 11c11.333 0 20.5 -3.66699 27.5 -11s10.5 -16.333 10.5 -27s-3.5 -19.667 -10.5 -27s-16.167 -11 -27.5 -11z" />
    <glyph glyph-name="wdieresis" unicode="&#x1e85;" horiz-adv-x="671" 
d="M166 0l-150 492h46l128 -426l125 426h44l124 -427l128 427h44l-150 -492h-44l-125 431l-126 -431h-44zM259 603c-10.667 0 -19.667 3.66699 -27 11s-11 16.333 -11 27s3.66699 19.667 11 27s16.333 11 27 11c11.333 0 20.5 -3.66699 27.5 -11s10.5 -16.333 10.5 -27
s-3.5 -19.667 -10.5 -27s-16.167 -11 -27.5 -11zM415 603c-10.667 0 -19.667 3.66699 -27 11s-11 16.333 -11 27s3.66699 19.667 11 27s16.333 11 27 11c11.333 0 20.5 -3.66699 27.5 -11s10.5 -16.333 10.5 -27s-3.5 -19.667 -10.5 -27s-16.167 -11 -27.5 -11z" />
    <glyph glyph-name="Ygrave" unicode="&#x1ef2;" horiz-adv-x="609" 
d="M281 0v292l-274 408h55l243 -366l244 366h53l-275 -410v-290h-46zM296 804l-118 110h68l94 -110h-44z" />
    <glyph glyph-name="ygrave" unicode="&#x1ef3;" horiz-adv-x="479" 
d="M75 -212c-7.33301 0 -14.667 0.500977 -22 1.50098l-19 2.5v44c10.667 -2.66699 23.667 -4 39 -4c42 0 75 26.667 99 80l40 90l-205 490h50l179 -437l187 437h49l-256 -584c-12.667 -28.667 -25.834 -51.834 -39.501 -69.501s-28.667 -30.5 -45 -38.5
s-35.166 -12 -56.499 -12zM231.999 596.001l-118 110h68l94 -110h-44z" />
    <glyph glyph-name="enspace" unicode="&#x2002;" horiz-adv-x="500" 
 />
    <glyph glyph-name="emspace" unicode="&#x2003;" horiz-adv-x="1000" 
 />
    <glyph glyph-name="thinspace" unicode="&#x2009;" horiz-adv-x="175" 
 />
    <glyph glyph-name="hairspace" unicode="&#x200a;" horiz-adv-x="100" 
 />
    <glyph glyph-name="zerowidthspace" unicode="&#x200b;" horiz-adv-x="0" 
 />
    <glyph glyph-name="endash" unicode="&#x2013;" horiz-adv-x="542" 
d="M53 258v44h436v-44h-436z" />
    <glyph glyph-name="emdash" unicode="&#x2014;" horiz-adv-x="692" 
d="M53 258v44h586v-44h-586z" />
    <glyph glyph-name="uni2015" unicode="&#x2015;" horiz-adv-x="942" 
d="M53 258v44h836v-44h-836z" />
    <glyph glyph-name="quoteleft" unicode="&#x2018;" horiz-adv-x="250" 
d="M170 709l-53 -188h-51l66 188h38z" />
    <glyph glyph-name="quoteright" unicode="&#x2019;" horiz-adv-x="250" 
d="M76 521l53 188h51l-66 -188h-38z" />
    <glyph glyph-name="quotesinglbase" unicode="&#x201a;" horiz-adv-x="250" 
d="M63 -131l53 188h51l-66 -188h-38z" />
    <glyph glyph-name="quotedblleft" unicode="&#x201c;" horiz-adv-x="360" 
d="M174 709l-53 -188h-51l66 188h38zM284 709l-53 -188h-51l66 188h38z" />
    <glyph glyph-name="quotedblright" unicode="&#x201d;" horiz-adv-x="360" 
d="M186 521l53 188h51l-66 -188h-38zM76 521l53 188h51l-66 -188h-38z" />
    <glyph glyph-name="quotedblbase" unicode="&#x201e;" horiz-adv-x="360" 
d="M173 -131l53 188h51l-66 -188h-38zM63 -131l53 188h51l-66 -188h-38z" />
    <glyph glyph-name="dagger" unicode="&#x2020;" horiz-adv-x="413" 
d="M184 0v455h-128v40h128v205h45v-205h128v-40h-128v-455h-45z" />
    <glyph glyph-name="daggerdbl" unicode="&#x2021;" horiz-adv-x="413" 
d="M184 0v206h-128v40h128v209h-128v40h128v205h45v-205h128v-40h-128v-209h128v-40h-128v-206h-45z" />
    <glyph glyph-name="bullet" unicode="&#x2022;" horiz-adv-x="316" 
d="M158 267c-16.667 0 -32.167 4.33301 -46.5 13s-25.666 20.167 -33.999 34.5s-12.5 30.166 -12.5 47.499s4.16699 33.166 12.5 47.499s19.666 25.833 33.999 34.5s29.833 13 46.5 13c17.333 0 33 -4.33301 47 -13s25.167 -20.167 33.5 -34.5s12.5 -30.166 12.5 -47.499
s-4.16699 -33.166 -12.5 -47.499s-19.5 -25.833 -33.5 -34.5s-29.667 -13 -47 -13z" />
    <glyph glyph-name="ellipsis" unicode="&#x2026;" horiz-adv-x="608" 
d="M125 -5c-10.667 0 -19.667 3.66699 -27 11s-11 16.333 -11 27s3.66699 19.667 11 27s16.333 11 27 11s19.667 -3.66699 27 -11s11 -16.333 11 -27s-3.66699 -19.667 -11 -27s-16.333 -11 -27 -11zM304 -5c-10.667 0 -19.667 3.66699 -27 11s-11 16.333 -11 27
s3.66699 19.667 11 27s16.333 11 27 11s19.667 -3.66699 27 -11s11 -16.333 11 -27s-3.66699 -19.667 -11 -27s-16.333 -11 -27 -11zM483 -5c-10.667 0 -19.667 3.66699 -27 11s-11 16.333 -11 27s3.66699 19.667 11 27s16.333 11 27 11s19.667 -3.66699 27 -11
s11 -16.333 11 -27s-3.66699 -19.667 -11 -27s-16.333 -11 -27 -11z" />
    <glyph glyph-name="perthousand" unicode="&#x2030;" horiz-adv-x="1055" 
d="M173 345c-41.333 0 -75.5 16.5 -102.5 49.5s-40.5 76.5 -40.5 130.5s13.5 97.5 40.5 130.5s61.167 49.5 102.5 49.5s75.5 -16.5 102.5 -49.5s40.5 -76.5 40.5 -130.5s-13.5 -97.5 -40.5 -130.5s-61.167 -49.5 -102.5 -49.5zM173 379c31.333 0 56.833 13.167 76.5 39.5
s29.5 61.833 29.5 106.5c0 45.333 -9.83301 81 -29.5 107s-45.167 39 -76.5 39s-56.833 -13 -76.5 -39s-29.5 -61.667 -29.5 -107c0 -44.667 9.83301 -80.167 29.5 -106.5s45.167 -39.5 76.5 -39.5zM141 0l393 700h43l-393 -700h-43zM544 -5
c-41.333 0 -75.5 16.5 -102.5 49.5s-40.5 76.5 -40.5 130.5s13.5 97.5 40.5 130.5s61.167 49.5 102.5 49.5s75.5 -16.5 102.5 -49.5s40.5 -76.5 40.5 -130.5s-13.5 -97.5 -40.5 -130.5s-61.167 -49.5 -102.5 -49.5zM544 29c31.333 0 56.833 13.167 76.5 39.5
s29.5 61.833 29.5 106.5c0 45.333 -9.83301 81 -29.5 107s-45.167 39 -76.5 39s-56.833 -13 -76.5 -39s-29.5 -61.667 -29.5 -107c0 -44.667 9.83301 -80.167 29.5 -106.5s45.167 -39.5 76.5 -39.5zM884 -5c-41.333 0 -75.5 16.5 -102.5 49.5s-40.5 76.5 -40.5 130.5
s13.5 97.5 40.5 130.5s61.167 49.5 102.5 49.5s75.5 -16.5 102.5 -49.5s40.5 -76.5 40.5 -130.5s-13.5 -97.5 -40.5 -130.5s-61.167 -49.5 -102.5 -49.5zM884 29c31.333 0 56.833 13.167 76.5 39.5s29.5 61.833 29.5 106.5c0 45.333 -9.83301 81 -29.5 107
s-45.167 39 -76.5 39s-56.833 -13 -76.5 -39s-29.5 -61.667 -29.5 -107c0 -44.667 9.83301 -80.167 29.5 -106.5s45.167 -39.5 76.5 -39.5z" />
    <glyph glyph-name="uni2032" unicode="&#x2032;" horiz-adv-x="250" 
d="M76 521l53 188h51l-66 -188h-38z" />
    <glyph glyph-name="uni2033" unicode="&#x2033;" horiz-adv-x="360" 
d="M186 521l53 188h51l-66 -188h-38zM76 521l53 188h51l-66 -188h-38z" />
    <glyph glyph-name="guilsinglleft" unicode="&#x2039;" horiz-adv-x="370" 
d="M266 0l-230 246l230 246h52l-231 -246l231 -246h-52z" />
    <glyph glyph-name="guilsinglright" unicode="&#x203a;" horiz-adv-x="370" 
d="M104 492l230 -246l-230 -246h-52l231 246l-231 246h52z" />
    <glyph glyph-name="fraction" unicode="&#x2044;" horiz-adv-x="578" 
d="M35 0l393 700h43l-393 -700h-43z" />
    <glyph glyph-name="uni2070" unicode="&#x2070;" horiz-adv-x="345" 
d="M173 345c-41.333 0 -75.5 16.5 -102.5 49.5s-40.5 76.5 -40.5 130.5s13.5 97.5 40.5 130.5s61.167 49.5 102.5 49.5s75.5 -16.5 102.5 -49.5s40.5 -76.5 40.5 -130.5s-13.5 -97.5 -40.5 -130.5s-61.167 -49.5 -102.5 -49.5zM173 379c31.333 0 56.833 13.167 76.5 39.5
s29.5 61.833 29.5 106.5c0 45.333 -9.83301 81 -29.5 107s-45.167 39 -76.5 39s-56.833 -13 -76.5 -39s-29.5 -61.667 -29.5 -107c0 -44.667 9.83301 -80.167 29.5 -106.5s45.167 -39.5 76.5 -39.5z" />
    <glyph glyph-name="uni2074" unicode="&#x2074;" horiz-adv-x="318" 
d="M221 350v93h-200v28l196 229h40v-224h42v-33h-42v-93h-36zM70 476h151v176z" />
    <glyph glyph-name="uni2075" unicode="&#x2075;" horiz-adv-x="302" 
d="M145 345c-49.333 0 -91.001 15.667 -125.001 47l23 27c16.667 -14.667 33 -25.167 49 -31.5s33.667 -9.5 53 -9.5c29.333 0 52.333 7.66699 69 23s25 34.333 25 57c0 20.667 -8.5 38.834 -25.5 54.501s-41.167 23.5 -72.5 23.5c-12.667 0 -25.667 -1.33301 -39 -4
s-26.666 -6.66699 -39.999 -12l-22 7l8 173h208v-33h-176l-5 -113c11.333 4 23 7.16699 35 9.5s24.333 3.5 37 3.5c40.667 0 72.167 -10.5 94.5 -31.5s33.5 -46.5 33.5 -76.5c0 -32.667 -11.667 -59.834 -35 -81.501s-55 -32.5 -95 -32.5z" />
    <glyph glyph-name="uni2076" unicode="&#x2076;" horiz-adv-x="321" 
d="M172 345c-40.667 0 -74.499 15.332 -101.499 45.999s-40.5 71.334 -40.5 122.001c0 59.333 15.5 106.166 46.5 140.499s70.833 51.5 119.5 51.5c14 0 28.333 -2 43 -6s27.334 -9.66699 38.001 -17l-19 -29c-8.66699 5.33301 -18.834 9.83301 -30.501 13.5
s-23.5 5.5 -35.5 5.5c-39.333 0 -70.166 -13.833 -92.499 -41.5s-33.5 -65.167 -33.5 -112.5c13.333 16.667 29.666 29.334 48.999 38.001s38.666 13 57.999 13c36 0 65.167 -10.5 87.5 -31.5s33.5 -46.833 33.5 -77.5c0 -32.667 -11.5 -60 -34.5 -82s-52.167 -33 -87.5 -33
zM166.001 537.999c-17.333 0 -34.667 -4.33301 -52 -13s-32.666 -21.667 -45.999 -39c4 -33.333 15.5 -59.666 34.5 -78.999s41.833 -29 68.5 -29c25.333 0 46.166 7.66699 62.499 23s24.5 34.666 24.5 57.999c0 22.667 -8.16699 41.5 -24.5 56.5s-38.833 22.5 -67.5 22.5z
" />
    <glyph glyph-name="uni2077" unicode="&#x2077;" horiz-adv-x="288" 
d="M56 350l180 317h-221v33h263v-29l-182 -321h-40z" />
    <glyph glyph-name="uni2078" unicode="&#x2078;" horiz-adv-x="323" 
d="M161 345c-36.667 0 -67.667 9.33301 -93 28s-38 42.667 -38 72c0 20.667 7 39 21 55s32 27.333 54 34c-18 7.33301 -32.667 18 -44 32s-17 30.333 -17 49c0 25.333 11.333 46.666 34 63.999s50.334 26 83.001 26c33.333 0 61.166 -8.66699 83.499 -26
s33.5 -38.666 33.5 -63.999c0 -18.667 -5.66699 -35 -17 -49s-26 -24.667 -44 -32c22 -6.66699 40 -18 54 -34s21 -34.333 21 -55c0 -29.333 -12.5 -53.333 -37.5 -72s-56.167 -28 -93.5 -28zM161 550c22.667 0 41.832 6 57.499 18s23.5 26.667 23.5 44s-7.66699 32 -23 44
s-34.666 18 -57.999 18c-22.667 0 -41.834 -6 -57.501 -18s-23.5 -26.667 -23.5 -44s7.83301 -32 23.5 -44s34.834 -18 57.501 -18zM160.998 377c27.333 0 50 6.83301 68 20.5s27 30.5 27 50.5s-9 36.833 -27 50.5s-40.667 20.5 -68 20.5
c-26.667 0 -49.167 -6.83301 -67.5 -20.5s-27.5 -30.5 -27.5 -50.5s9.16699 -36.833 27.5 -50.5s40.833 -20.5 67.5 -20.5z" />
    <glyph glyph-name="uni2079" unicode="&#x2079;" horiz-adv-x="321" 
d="M149 705c41.333 0 75.3301 -15.332 101.997 -45.999s40 -71.334 40 -122.001c0 -59.333 -15.333 -106.166 -46 -140.499s-70.667 -51.5 -120 -51.5c-14 0 -28.167 2.16699 -42.5 6.5s-27.166 9.83301 -38.499 16.5l19 29c8.66699 -5.33301 18.834 -9.83301 30.501 -13.5
s23.5 -5.5 35.5 -5.5c39.333 0 70.166 14 92.499 42s33.5 65.333 33.5 112c-13.333 -16.667 -29.666 -29.334 -48.999 -38.001s-38.666 -13 -57.999 -13c-36 0 -65.167 10.5 -87.5 31.5s-33.5 46.833 -33.5 77.5c0 33.333 11.5 60.833 34.5 82.5s52.167 32.5 87.5 32.5z
M154.997 512.001c17.333 0 34.8311 4.5 52.498 13.5s32.834 21.833 45.501 38.5c-4 33.333 -15.333 59.666 -34 78.999s-41.667 29 -69 29c-25.333 0 -46.166 -7.66699 -62.499 -23s-24.5 -34.666 -24.5 -57.999c0 -22.667 8.16699 -41.5 24.5 -56.5
s38.833 -22.5 67.5 -22.5z" />
    <glyph glyph-name="uni2080" unicode="&#x2080;" horiz-adv-x="345" 
d="M173 -5c-41.333 0 -75.5 16.5 -102.5 49.5s-40.5 76.5 -40.5 130.5s13.5 97.5 40.5 130.5s61.167 49.5 102.5 49.5s75.5 -16.5 102.5 -49.5s40.5 -76.5 40.5 -130.5s-13.5 -97.5 -40.5 -130.5s-61.167 -49.5 -102.5 -49.5zM173 29c31.333 0 56.833 13.167 76.5 39.5
s29.5 61.833 29.5 106.5c0 45.333 -9.83301 81 -29.5 107s-45.167 39 -76.5 39s-56.833 -13 -76.5 -39s-29.5 -61.667 -29.5 -107c0 -44.667 9.83301 -80.167 29.5 -106.5s45.167 -39.5 76.5 -39.5z" />
    <glyph glyph-name="uni2081" unicode="&#x2081;" horiz-adv-x="151" 
d="M82 0v308l-61 -26v37l73 31h24v-350h-36z" />
    <glyph glyph-name="uni2082" unicode="&#x2082;" horiz-adv-x="284" 
d="M26 0v27.999l131 127c22 21.333 37.833 38.833 47.5 52.5s14.5 28.834 14.5 45.501c0 20 -7.5 36.5 -22.5 49.5s-34.167 19.5 -57.5 19.5c-16.667 0 -32.334 -3.16699 -47.001 -9.5s-31.334 -17.5 -50.001 -33.5l-22 26c18.667 16 37.834 28.333 57.501 37
s40.5 13 62.5 13c34 0 61.667 -9.5 83 -28.5s32 -42.833 32 -71.5c0 -22.667 -5.66699 -42.5 -17 -59.5s-29.666 -37.833 -54.999 -62.5l-103 -100h182v-33h-236z" />
    <glyph glyph-name="uni2083" unicode="&#x2083;" horiz-adv-x="306" 
d="M148 -5c-24.667 0 -48.002 4.00098 -70.002 12.001s-41.667 20.333 -59 37l25 25c16 -15.333 32.333 -26 49 -32s35 -9 55 -9c27.333 0 49.333 6.5 66 19.5s25 29.5 25 49.5c0 18 -8 33.167 -24 45.5s-38 18.5 -66 18.5h-30v31h28c24.667 0 43.834 6.83301 57.501 20.5
s20.5 29.5 20.5 47.5c0 17.333 -7.5 32 -22.5 44s-33.833 18 -56.5 18c-18.667 0 -35.5 -3.16699 -50.5 -9.5s-30.833 -17.5 -47.5 -33.5l-25 25c18 17.333 37.333 30.166 58 38.499s42.334 12.5 65.001 12.5c33.333 0 60.833 -8.83301 82.5 -26.5s32.5 -40.167 32.5 -67.5
c0 -16.667 -5 -32.334 -15 -47.001s-25 -26 -45 -34c23.333 -6.66699 41.5 -17.667 54.5 -33s19.5 -32.666 19.5 -51.999c0 -28.667 -11.833 -52.5 -35.5 -71.5s-54.167 -28.5 -91.5 -28.5z" />
    <glyph glyph-name="uni2084" unicode="&#x2084;" horiz-adv-x="318" 
d="M221 0v93h-200v28l196 229h40v-224h42v-33h-42v-93h-36zM70 126h151v176z" />
    <glyph glyph-name="uni2085" unicode="&#x2085;" horiz-adv-x="302" 
d="M145 -5c-49.333 0 -91.001 15.667 -125.001 47l23 27c16.667 -14.667 33 -25.167 49 -31.5s33.667 -9.5 53 -9.5c29.333 0 52.333 7.66699 69 23s25 34.333 25 57c0 20.667 -8.5 38.834 -25.5 54.501s-41.167 23.5 -72.5 23.5c-12.667 0 -25.667 -1.33301 -39 -4
s-26.666 -6.66699 -39.999 -12l-22 7l8 173h208v-33h-176l-5 -113c11.333 4 23 7.16699 35 9.5s24.333 3.5 37 3.5c40.667 0 72.167 -10.5 94.5 -31.5s33.5 -46.5 33.5 -76.5c0 -32.667 -11.667 -59.834 -35 -81.501s-55 -32.5 -95 -32.5z" />
    <glyph glyph-name="uni2086" unicode="&#x2086;" horiz-adv-x="321" 
d="M172 -5c-40.667 0 -74.499 15.332 -101.499 45.999s-40.5 71.334 -40.5 122.001c0 59.333 15.5 106.166 46.5 140.499s70.833 51.5 119.5 51.5c14 0 28.333 -2 43 -6s27.334 -9.66699 38.001 -17l-19 -29c-8.66699 5.33301 -18.834 9.83301 -30.501 13.5
s-23.5 5.5 -35.5 5.5c-39.333 0 -70.166 -13.833 -92.499 -41.5s-33.5 -65.167 -33.5 -112.5c13.333 16.667 29.666 29.334 48.999 38.001s38.666 13 57.999 13c36 0 65.167 -10.5 87.5 -31.5s33.5 -46.833 33.5 -77.5c0 -32.667 -11.5 -60 -34.5 -82s-52.167 -33 -87.5 -33
zM166.001 187.999c-17.333 0 -34.667 -4.33301 -52 -13s-32.666 -21.667 -45.999 -39c4 -33.333 15.5 -59.666 34.5 -78.999s41.833 -29 68.5 -29c25.333 0 46.166 7.66699 62.499 23s24.5 34.666 24.5 57.999c0 22.667 -8.16699 41.5 -24.5 56.5s-38.833 22.5 -67.5 22.5z
" />
    <glyph glyph-name="uni2087" unicode="&#x2087;" horiz-adv-x="288" 
d="M56 0l180 317h-221v33h263v-29l-182 -321h-40z" />
    <glyph glyph-name="uni2088" unicode="&#x2088;" horiz-adv-x="323" 
d="M161 -5c-36.667 0 -67.667 9.33301 -93 28s-38 42.667 -38 72c0 20.667 7 39 21 55s32 27.333 54 34c-18 7.33301 -32.667 18 -44 32s-17 30.333 -17 49c0 25.333 11.333 46.666 34 63.999s50.334 26 83.001 26c33.333 0 61.166 -8.66699 83.499 -26
s33.5 -38.666 33.5 -63.999c0 -18.667 -5.66699 -35 -17 -49s-26 -24.667 -44 -32c22 -6.66699 40 -18 54 -34s21 -34.333 21 -55c0 -29.333 -12.5 -53.333 -37.5 -72s-56.167 -28 -93.5 -28zM161 200c22.667 0 41.832 6 57.499 18s23.5 26.667 23.5 44s-7.66699 32 -23 44
s-34.666 18 -57.999 18c-22.667 0 -41.834 -6 -57.501 -18s-23.5 -26.667 -23.5 -44s7.83301 -32 23.5 -44s34.834 -18 57.501 -18zM160.998 27c27.333 0 50 6.83301 68 20.5s27 30.5 27 50.5s-9 36.833 -27 50.5s-40.667 20.5 -68 20.5
c-26.667 0 -49.167 -6.83301 -67.5 -20.5s-27.5 -30.5 -27.5 -50.5s9.16699 -36.833 27.5 -50.5s40.833 -20.5 67.5 -20.5z" />
    <glyph glyph-name="uni2089" unicode="&#x2089;" horiz-adv-x="321" 
d="M149 355c40.667 0 74.499 -15.332 101.499 -45.999s40.5 -71.334 40.5 -122.001c0 -59.333 -15.5 -106.166 -46.5 -140.499s-70.833 -51.5 -119.5 -51.5c-14 0 -28.333 2 -43 6s-27.334 9.66699 -38.001 17l19 29c8.66699 -5.33301 18.834 -9.83301 30.501 -13.5
s23.5 -5.5 35.5 -5.5c39.333 0 70.166 13.833 92.499 41.5s33.5 65.167 33.5 112.5c-13.333 -16.667 -29.666 -29.334 -48.999 -38.001s-38.666 -13 -57.999 -13c-36 0 -65.167 10.5 -87.5 31.5s-33.5 46.833 -33.5 77.5c0 32.667 11.5 60 34.5 82s52.167 33 87.5 33z
M154.999 162.001c17.333 0 34.667 4.33301 52 13s32.666 21.667 45.999 39c-4 33.333 -15.5 59.666 -34.5 78.999s-41.833 29 -68.5 29c-25.333 0 -46.166 -7.66699 -62.499 -23s-24.5 -34.666 -24.5 -57.999c0 -22.667 8.16699 -41.5 24.5 -56.5s38.833 -22.5 67.5 -22.5z
" />
    <glyph glyph-name="Euro" unicode="&#x20ac;" horiz-adv-x="769" 
d="M459 -11c-52.667 0 -101.167 11.166 -145.5 33.499s-81.5 54 -111.5 95s-50.667 89.167 -62 144.5h-108v41h102c-0.666992 7.33301 -1.16699 15 -1.5 23s-0.5 16 -0.5 24s0.166992 16 0.5 24s0.833008 15.667 1.5 23h-102v41h108c11.333 55.333 32 103.5 62 144.5
s67.167 72.667 111.5 95s92.833 33.5 145.5 33.5c51.333 0 99.333 -11 144 -33s82 -53 112 -93l-34 -26c-26.667 36 -59.5 63.167 -98.5 81.5s-80.5 27.5 -124.5 27.5s-84.667 -9.16699 -122 -27.5s-68.833 -44.5 -94.5 -78.5s-43.834 -75.333 -54.501 -124h295l-14 -41
h-288c-0.666992 -7.33301 -1.16699 -15 -1.5 -23s-0.5 -16 -0.5 -24s0.166992 -16 0.5 -24s0.833008 -15.667 1.5 -23h255l-13 -41h-235c10.667 -48 28.834 -89.167 54.501 -123.5s57.167 -60.666 94.5 -78.999s78 -27.5 122 -27.5s85.5 9.16699 124.5 27.5
s71.833 45.5 98.5 81.5l34 -26c-30 -40 -67.333 -71 -112 -93s-92.667 -33 -144 -33z" />
    <glyph glyph-name="trademark" unicode="&#x2122;" horiz-adv-x="669" 
d="M323 425v275h40l97 -196l96 196h39v-275h-31v234l-105 -215l-105 215v-234h-31zM138 425v247h-101v28h233v-28h-101v-247h-31z" />
    <glyph glyph-name="uni2191" unicode="&#x2191;" horiz-adv-x="598" 
d="M279 0v652l-173 -231l-33 23l227 306l225 -306l-31 -20l-175 236v-660h-40z" />
    <glyph glyph-name="uni2193" unicode="&#x2193;" horiz-adv-x="598" 
d="M319 700v-652l173 231l33 -23l-227 -306l-225 306l31 20l175 -236v660h40z" />
    <glyph glyph-name="minus" unicode="&#x2212;" 
d="M111 337v41h377v-41h-377z" />
    <glyph glyph-name="uni2215" unicode="&#x2215;" 
d="M44 0l389 700h42l-389 -700h-42z" />
    <glyph glyph-name="notequal" unicode="&#x2260;" 
d="M102 147l95 116h-86v41h120l89 108h-209v41h243l95 116h49l-95 -116h85v-41h-119l-89 -108h208v-41h-242l-95 -116h-49z" />
    <glyph glyph-name="fi" unicode="&#xfb01;" horiz-adv-x="528" 
d="M135 0v451.999h-118v40h118v109c0 44.667 11.667 79 35 103s57 36 101 36c12.667 0 23.5 -0.666992 32.5 -2s18.167 -3.66602 27.5 -6.99902v-43c-11.333 3.33301 -21.5 5.83301 -30.5 7.5s-19.167 2.5 -30.5 2.5c-30.667 0 -53.5 -7.66699 -68.5 -23
s-22.5 -40.333 -22.5 -75v-108h152v-40h-152v-452h-44zM416 -0.000976562v492h44v-492h-44zM438 602.999c-10.667 0 -19.667 3.66699 -27 11s-11 16.333 -11 27s3.66699 19.667 11 27s16.333 11 27 11c11.333 0 20.5 -3.66699 27.5 -11s10.5 -16.333 10.5 -27
s-3.5 -19.667 -10.5 -27s-16.167 -11 -27.5 -11z" />
    <glyph glyph-name="fl" unicode="&#xfb02;" horiz-adv-x="528" 
d="M135 0v451.999h-118v40h118v109c0 44.667 11.667 79 35 103s57 36 101 36c12.667 0 23.5 -0.666992 32.5 -2s18.167 -3.66602 27.5 -6.99902v-43c-11.333 3.33301 -21.5 5.83301 -30.5 7.5s-19.167 2.5 -30.5 2.5c-30.667 0 -53.5 -7.66699 -68.5 -23
s-22.5 -40.333 -22.5 -75v-108h152v-40h-152v-452h-44zM416 -0.000976562v700l44 11v-711h-44z" />
    <glyph glyph-name="uniFEFF" unicode="&#xfeff;" horiz-adv-x="0" 
 />
    <glyph glyph-name="uniFFFD" unicode="&#xfffd;" 
d="M103 -100v850h394v-850h-394z" />
    <glyph glyph-name="NULL" horiz-adv-x="221" 
 />
    <glyph glyph-name="CR" horiz-adv-x="221" 
 />
    <glyph glyph-name="idotaccent" horiz-adv-x="178" 
d="M68 0v492h44v-492h-44zM90 603c-10.667 0 -19.667 3.66699 -27 11s-11 16.333 -11 27s3.66699 19.667 11 27s16.333 11 27 11c11.333 0 20.5 -3.66699 27.5 -11s10.5 -16.333 10.5 -27s-3.5 -19.667 -10.5 -27s-16.167 -11 -27.5 -11z" />
    <glyph glyph-name="a.school" horiz-adv-x="571" 
d="M290 -10c-45.333 0 -86.665 11.3311 -123.998 33.998s-66.833 53.334 -88.5 92.001s-32.5 82 -32.5 130s10.833 91.333 32.5 130s51.167 69.334 88.5 92.001s78.666 34 123.999 34c31.333 0 61.666 -6.16699 90.999 -18.5s55.333 -28.833 78 -49.5v58h44v-492h-44v59
c-44.667 -46 -101 -69 -169 -69zM290.001 31.998c36.667 0 69.832 7.5 99.499 22.5s52.834 34.833 69.501 59.5v264c-17.333 23.333 -41 42.833 -71 58.5s-62.667 23.5 -98 23.5c-37.333 0 -71.166 -9.5 -101.499 -28.5s-54.333 -44.667 -72 -77s-26.5 -68.5 -26.5 -108.5
s8.83301 -76.167 26.5 -108.5s41.667 -58 72 -77s64.166 -28.5 101.499 -28.5z" />
    <glyph glyph-name="aacute.school" horiz-adv-x="571" 
d="M290 -10c-45.333 0 -86.665 11.3311 -123.998 33.998s-66.833 53.334 -88.5 92.001s-32.5 82 -32.5 130s10.833 91.333 32.5 130s51.167 69.334 88.5 92.001s78.666 34 123.999 34c31.333 0 61.666 -6.16699 90.999 -18.5s55.333 -28.833 78 -49.5v58h44v-492h-44v59
c-44.667 -46 -101 -69 -169 -69zM290.001 31.998c36.667 0 69.832 7.5 99.499 22.5s52.834 34.833 69.501 59.5v264c-17.333 23.333 -41 42.833 -71 58.5s-62.667 23.5 -98 23.5c-37.333 0 -71.166 -9.5 -101.499 -28.5s-54.333 -44.667 -72 -77s-26.5 -68.5 -26.5 -108.5
s8.83301 -76.167 26.5 -108.5s41.667 -58 72 -77s64.166 -28.5 101.499 -28.5zM249.999 595.998l96 110h67l-119 -110h-44z" />
    <glyph glyph-name="abreve.school" horiz-adv-x="571" 
d="M290 -10c-45.333 0 -86.665 11.3311 -123.998 33.998s-66.833 53.334 -88.5 92.001s-32.5 82 -32.5 130s10.833 91.333 32.5 130s51.167 69.334 88.5 92.001s78.666 34 123.999 34c31.333 0 61.666 -6.16699 90.999 -18.5s55.333 -28.833 78 -49.5v58h44v-492h-44v59
c-44.667 -46 -101 -69 -169 -69zM290.001 31.998c36.667 0 69.832 7.5 99.499 22.5s52.834 34.833 69.501 59.5v264c-17.333 23.333 -41 42.833 -71 58.5s-62.667 23.5 -98 23.5c-37.333 0 -71.166 -9.5 -101.499 -28.5s-54.333 -44.667 -72 -77s-26.5 -68.5 -26.5 -108.5
s8.83301 -76.167 26.5 -108.5s41.667 -58 72 -77s64.166 -28.5 101.499 -28.5zM284.999 587.998c-37.333 0 -68.6699 10.666 -94.0029 31.999s-42 50 -50 86l37 8c14.667 -60 50.334 -90 107.001 -90c27.333 0 50.333 7.83301 69 23.5s31.334 37.834 38.001 66.501l37 -8
c-7.33301 -36 -23.666 -64.667 -48.999 -86s-57 -32 -95 -32z" />
    <glyph glyph-name="acircumflex.school" horiz-adv-x="571" 
d="M290 -10c-45.333 0 -86.665 11.3311 -123.998 33.998s-66.833 53.334 -88.5 92.001s-32.5 82 -32.5 130s10.833 91.333 32.5 130s51.167 69.334 88.5 92.001s78.666 34 123.999 34c31.333 0 61.666 -6.16699 90.999 -18.5s55.333 -28.833 78 -49.5v58h44v-492h-44v59
c-44.667 -46 -101 -69 -169 -69zM290.001 31.998c36.667 0 69.832 7.5 99.499 22.5s52.834 34.833 69.501 59.5v264c-17.333 23.333 -41 42.833 -71 58.5s-62.667 23.5 -98 23.5c-37.333 0 -71.166 -9.5 -101.499 -28.5s-54.333 -44.667 -72 -77s-26.5 -68.5 -26.5 -108.5
s8.83301 -76.167 26.5 -108.5s41.667 -58 72 -77s64.166 -28.5 101.499 -28.5zM372.999 590.998l-88 83l-88 -83h-37l99 115h52l99 -115h-37z" />
    <glyph glyph-name="adieresis.school" horiz-adv-x="571" 
d="M290 -10c-45.333 0 -86.665 11.3311 -123.998 33.998s-66.833 53.334 -88.5 92.001s-32.5 82 -32.5 130s10.833 91.333 32.5 130s51.167 69.334 88.5 92.001s78.666 34 123.999 34c31.333 0 61.666 -6.16699 90.999 -18.5s55.333 -28.833 78 -49.5v58h44v-492h-44v59
c-44.667 -46 -101 -69 -169 -69zM290.001 31.998c36.667 0 69.832 7.5 99.499 22.5s52.834 34.833 69.501 59.5v264c-17.333 23.333 -41 42.833 -71 58.5s-62.667 23.5 -98 23.5c-37.333 0 -71.166 -9.5 -101.499 -28.5s-54.333 -44.667 -72 -77s-26.5 -68.5 -26.5 -108.5
s8.83301 -76.167 26.5 -108.5s41.667 -58 72 -77s64.166 -28.5 101.499 -28.5zM206.999 602.998c-10.667 0 -19.667 3.66699 -27 11s-11 16.333 -11 27s3.66699 19.667 11 27s16.333 11 27 11c11.333 0 20.5 -3.66699 27.5 -11s10.5 -16.333 10.5 -27
s-3.5 -19.667 -10.5 -27s-16.167 -11 -27.5 -11zM362.999 602.998c-10.667 0 -19.667 3.66699 -27 11s-11 16.333 -11 27s3.66699 19.667 11 27s16.333 11 27 11c11.333 0 20.5 -3.66699 27.5 -11s10.5 -16.333 10.5 -27s-3.5 -19.667 -10.5 -27s-16.167 -11 -27.5 -11z" />
    <glyph glyph-name="agrave.school" horiz-adv-x="571" 
d="M290 -10c-45.333 0 -86.665 11.3311 -123.998 33.998s-66.833 53.334 -88.5 92.001s-32.5 82 -32.5 130s10.833 91.333 32.5 130s51.167 69.334 88.5 92.001s78.666 34 123.999 34c31.333 0 61.666 -6.16699 90.999 -18.5s55.333 -28.833 78 -49.5v58h44v-492h-44v59
c-44.667 -46 -101 -69 -169 -69zM290.001 31.998c36.667 0 69.832 7.5 99.499 22.5s52.834 34.833 69.501 59.5v264c-17.333 23.333 -41 42.833 -71 58.5s-62.667 23.5 -98 23.5c-37.333 0 -71.166 -9.5 -101.499 -28.5s-54.333 -44.667 -72 -77s-26.5 -68.5 -26.5 -108.5
s8.83301 -76.167 26.5 -108.5s41.667 -58 72 -77s64.166 -28.5 101.499 -28.5zM275.999 595.998l-118 110h68l94 -110h-44z" />
    <glyph glyph-name="amacron.school" horiz-adv-x="571" 
d="M290 -10c-45.333 0 -86.665 11.3311 -123.998 33.998s-66.833 53.334 -88.5 92.001s-32.5 82 -32.5 130s10.833 91.333 32.5 130s51.167 69.334 88.5 92.001s78.666 34 123.999 34c31.333 0 61.666 -6.16699 90.999 -18.5s55.333 -28.833 78 -49.5v58h44v-492h-44v59
c-44.667 -46 -101 -69 -169 -69zM290.001 31.998c36.667 0 69.832 7.5 99.499 22.5s52.834 34.833 69.501 59.5v264c-17.333 23.333 -41 42.833 -71 58.5s-62.667 23.5 -98 23.5c-37.333 0 -71.166 -9.5 -101.499 -28.5s-54.333 -44.667 -72 -77s-26.5 -68.5 -26.5 -108.5
s8.83301 -76.167 26.5 -108.5s41.667 -58 72 -77s64.166 -28.5 101.499 -28.5zM151.999 619.998v37h267v-37h-267z" />
    <glyph glyph-name="aogonek.school" horiz-adv-x="571" 
d="M448 -221c-30.667 0 -54.334 7.99707 -71.001 23.9971s-25 35.667 -25 59c0 22 8.33301 44.333 25 67s44.334 46.334 83.001 71.001h-1v59c-44.667 -46 -101 -69 -169 -69c-45.333 0 -86.666 11.333 -123.999 34s-66.833 53.334 -88.5 92.001s-32.5 82 -32.5 130
s10.833 91.333 32.5 130s51.167 69.334 88.5 92.001s78.666 34 123.999 34c31.333 0 61.666 -6.16699 90.999 -18.5s55.333 -28.833 78 -49.5v58h44v-492c-42.667 -27.333 -72 -51.333 -88 -72s-24 -40.334 -24 -59.001s5.66699 -32.667 17 -42s26.333 -14 45 -14
c9.33301 0 18.333 1.33301 27 4s16.667 6.33398 24 11.001l13 -29c-10 -6.66699 -20.667 -11.667 -32 -15s-23.666 -5 -36.999 -5zM90 245.997c0 -40 8.83105 -76.167 26.498 -108.5s41.667 -58 72 -77s64.166 -28.5 101.499 -28.5c36.667 0 69.834 7.5 99.501 22.5
s52.834 34.833 69.501 59.5v264c-17.333 23.333 -41 42.833 -71 58.5s-62.667 23.5 -98 23.5c-37.333 0 -71.166 -9.5 -101.499 -28.5s-54.333 -44.667 -72 -77s-26.5 -68.5 -26.5 -108.5z" />
    <glyph glyph-name="aring.school" horiz-adv-x="571" 
d="M290 -10c-45.333 0 -86.665 11.3311 -123.998 33.998s-66.833 53.334 -88.5 92.001s-32.5 82 -32.5 130s10.833 91.333 32.5 130s51.167 69.334 88.5 92.001s78.666 34 123.999 34c31.333 0 61.666 -6.16699 90.999 -18.5s55.333 -28.833 78 -49.5v58h44v-492h-44v59
c-44.667 -46 -101 -69 -169 -69zM290.001 31.998c36.667 0 69.832 7.5 99.499 22.5s52.834 34.833 69.501 59.5v264c-17.333 23.333 -41 42.833 -71 58.5s-62.667 23.5 -98 23.5c-37.333 0 -71.166 -9.5 -101.499 -28.5s-54.333 -44.667 -72 -77s-26.5 -68.5 -26.5 -108.5
s8.83301 -76.167 26.5 -108.5s41.667 -58 72 -77s64.166 -28.5 101.499 -28.5zM284.999 580.998c-20 0 -38.001 4.83301 -54.001 14.5s-28.667 22.667 -38 39s-14 34.166 -14 53.499s4.66699 37 14 53s22 28.833 38 38.5s34 14.5 54 14.5
c20.667 0 38.834 -4.83301 54.501 -14.5s28.167 -22.5 37.5 -38.5s14 -33.667 14 -53s-4.66699 -37.166 -14 -53.499s-22 -29.333 -38 -39s-34 -14.5 -54 -14.5zM284.998 613.998c20 0 36.998 7.16699 50.998 21.5s21 31.833 21 52.5s-7.16699 38 -21.5 52
s-31.166 21 -50.499 21c-20 0 -37 -7 -51 -21s-21 -31.333 -21 -52s6.83301 -38.167 20.5 -52.5s30.834 -21.5 51.501 -21.5z" />
    <glyph glyph-name="atilde.school" horiz-adv-x="571" 
d="M290 -10c-45.333 0 -86.665 11.3311 -123.998 33.998s-66.833 53.334 -88.5 92.001s-32.5 82 -32.5 130s10.833 91.333 32.5 130s51.167 69.334 88.5 92.001s78.666 34 123.999 34c31.333 0 61.666 -6.16699 90.999 -18.5s55.333 -28.833 78 -49.5v58h44v-492h-44v59
c-44.667 -46 -101 -69 -169 -69zM290.001 31.998c36.667 0 69.832 7.5 99.499 22.5s52.834 34.833 69.501 59.5v264c-17.333 23.333 -41 42.833 -71 58.5s-62.667 23.5 -98 23.5c-37.333 0 -71.166 -9.5 -101.499 -28.5s-54.333 -44.667 -72 -77s-26.5 -68.5 -26.5 -108.5
s8.83301 -76.167 26.5 -108.5s41.667 -58 72 -77s64.166 -28.5 101.499 -28.5zM164.999 592.998l-37.001 6.00098c13.333 60 42 90 86 90c17.333 0 34.166 -4.83301 50.499 -14.5l48 -28.5c15.667 -9.33301 30.5 -14 44.5 -14c11.333 0 20.833 4.33301 28.5 13
s13.834 23.667 18.501 45l37 -6c-6.66699 -30.667 -17.5 -53.334 -32.5 -68.001s-33.167 -22 -54.5 -22c-16.667 0 -33.167 4.66699 -49.5 14s-32.166 18.833 -47.499 28.5s-30.333 14.5 -45 14.5c-12.667 0 -22.5 -4.33301 -29.5 -13s-12.833 -23.667 -17.5 -45z" />
    </font>
</defs>
</svg>
