<?xml version="1.0" standalone="no"?>
<!DOCTYPE svg PUBLIC "-//W3C//DTD SVG 1.1//EN" "http://www.w3.org/Graphics/SVG/1.1/DTD/svg11.dtd" >
<svg>
<metadata>
Created by FontForge 20090914 at Wed Nov 30 10:42:34 2022
 By www-data
Copyright 2021 The Red Hat Project Authors (https://github.com/RedHatOfficial/RedHatFont)
</metadata>
<defs>
<font id="RedHatDisplay-Regular" horiz-adv-x="600" >
  <font-face 
    font-family="Red Hat Display"
    font-weight="400"
    font-stretch="normal"
    units-per-em="1000"
    panose-1="2 1 3 3 4 2 1 6 3 3"
    ascent="800"
    descent="-200"
    x-height="501"
    cap-height="700"
    bbox="-68 -264.001 1058 1004"
    underline-thickness="100"
    underline-position="-150"
    unicode-range="U+0020-U+FFFD"
  />
<missing-glyph horiz-adv-x="514" 
d="M60 -100v850h394v-850h-394z" />
    <glyph glyph-name=".notdef" horiz-adv-x="514" 
d="M60 -100v850h394v-850h-394z" />
    <glyph glyph-name="space" unicode=" " horiz-adv-x="215" 
 />
    <glyph glyph-name="exclam" unicode="!" horiz-adv-x="198" 
d="M69 194l-9 511h77l-9 -511h-59zM99 -6c-14 0 -26 5 -36 15s-15 22 -15 36s5 26 15 36s22 15 36 15s26 -5 36 -15s15 -22 15 -36s-5 -26 -15 -36s-22 -15 -36 -15z" />
    <glyph glyph-name="quotedbl" unicode="&#x22;" horiz-adv-x="318" 
d="M69 497l-11 204h75l-11 -204h-53zM197 497l-11 204h75l-11 -204h-53z" />
    <glyph glyph-name="numbersign" unicode="#" horiz-adv-x="692" 
d="M79 0l63 219h-112v58h128l42 146h-120v58h136l63 219h68l-63 -219h198l63 219h68l-63 -219h112v-58h-128l-42 -146h120v-58h-136l-63 -219h-68l63 219h-198l-63 -219h-68zM226 277h198l42 146h-198z" />
    <glyph glyph-name="dollar" unicode="$" horiz-adv-x="567" 
d="M256 -67l0.000976562 87.9961c-46 4 -89 15.5 -129 34.5s-75 44.833 -105 77.5l46 49c53.333 -57.333 116 -91 188 -101v246l-35 7c-66.667 14.667 -114 34.834 -142 60.501s-42 62.167 -42 109.5c0 35.333 9.33301 66.333 28 93s44.5 47.5 77.5 62.5
s70.833 22.5 113.5 22.5v85h51v-87c38.667 -4.66699 76.5 -14.167 113.5 -28.5s71.5 -33.166 103.5 -56.499l-38 -56c-30.667 21.333 -60.834 38.333 -90.501 51s-59.167 21.334 -88.5 26.001v-231l34 -7c72 -16 122.667 -37 152 -63s44 -62.667 44 -110
c0 -35.333 -9.66699 -66.666 -29 -93.999s-46.333 -49 -81 -65s-74.667 -25 -120 -27v-86h-51zM256.001 394.996l0.00195312 224.999c-44.667 -0.666992 -80.834 -11 -108.501 -31s-41.5 -46.333 -41.5 -79c0 -20.667 4.16699 -38 12.5 -52s22.166 -25.667 41.499 -35
s46 -17.666 80 -24.999zM307.003 78.9951c46.667 2.66699 84.834 15.165 114.501 37.498s44.5 50.833 44.5 85.5c0 20.667 -4.33301 37.834 -13 51.501s-23.334 25.334 -44.001 35.001s-49.667 18.167 -87 25.5l-15 3v-238z" />
    <glyph glyph-name="percent" unicode="%" horiz-adv-x="739" 
d="M176 345c-44.667 0 -80.667 16.667 -108 50s-41 76.666 -41 129.999s13.667 96.666 41 129.999s63.333 50 108 50c43.333 0 78.666 -16.667 105.999 -50s41.333 -76.666 42 -129.999c-0.666992 -53.333 -14.667 -96.666 -42 -129.999s-62.666 -50 -105.999 -50zM176 391
c29.333 0 52.833 12.167 70.5 36.5s26.5 56.833 26.5 97.5c0 41.333 -8.83301 74.166 -26.5 98.499s-41.167 36.5 -70.5 36.5c-30 0 -53.667 -12.167 -71 -36.5s-26.333 -57.166 -27 -98.499c0.666992 -40.667 9.66699 -73.167 27 -97.5s41 -36.5 71 -36.5zM142 0l393 700
h62l-394 -700h-61zM566 -5c-44.667 0 -80.667 16.667 -108 50s-41 76.666 -41 129.999s13.667 96.666 41 129.999s63.333 50 108 50c43.333 0 78.666 -16.667 105.999 -50s41.333 -76.666 42 -129.999c-0.666992 -53.333 -14.667 -96.666 -42 -129.999
s-62.666 -50 -105.999 -50zM566 41c29.333 0 52.833 12.167 70.5 36.5s26.5 56.833 26.5 97.5c0 41.333 -8.83301 74.166 -26.5 98.499s-41.167 36.5 -70.5 36.5c-30 0 -53.667 -12.167 -71 -36.5s-26.333 -57.166 -27 -98.499c0.666992 -40.667 9.66699 -73.167 27 -97.5
s41 -36.5 71 -36.5z" />
    <glyph glyph-name="ampersand" unicode="&#x26;" horiz-adv-x="653" 
d="M257 -11c-46 0 -86.3379 8.33496 -121.005 25.002s-61.667 40 -81 70s-29 64.667 -29 104c0 28 4.83301 53.167 14.5 75.5s25.834 43.5 48.501 63.5s53.334 40.667 92.001 62c-23.333 29.333 -39.833 56.166 -49.5 80.499s-14.5 49.833 -14.5 76.5
c0 31.333 7.33301 59.5 22 84.5s34.834 44.667 60.501 59s54.5 21.5 86.5 21.5c30.667 0 57.834 -6.16699 81.501 -18.5s42.334 -29.333 56.001 -51s20.5 -46.834 20.5 -75.501c0 -32.667 -9 -62 -27 -88s-46.333 -50.333 -85 -73l-50 -30c27.333 -30.667 57.333 -62 90 -94
l100 -95c16.667 26.667 30.5 56 41.5 88s19.833 65.333 26.5 100l68 -11c-8.66699 -42.667 -20 -82.5 -34 -119.5s-31.333 -71.167 -52 -102.5l64 -53.5l60 -47.5l-45 -53l-58.5 46.5l-61.5 50.5c-28.667 -30.667 -62.167 -54.167 -100.5 -70.5s-79.5 -24.5 -123.5 -24.5z
M242.995 421.002l56.999 32.999c24.667 14.667 43.167 31 55.5 49s18.5 38.333 18.5 61c0 24.667 -8.66699 45.334 -26 62.001s-38.666 25 -63.999 25c-28 0 -51.167 -9.66699 -69.5 -29s-27.5 -44.333 -27.5 -75c0 -20.667 4.16699 -40.5 12.5 -59.5
s22.833 -41.167 43.5 -66.5zM260.994 52.001c33.333 0 64.499 6.49805 93.499 19.498s54.833 31.833 77.5 56.5l-113 107.5c-36.667 36.333 -69.667 71.5 -99 105.5c-31.333 -16.667 -56.166 -32.667 -74.499 -48s-31.166 -31.166 -38.499 -47.499s-11 -34.833 -11 -55.5
c0 -41.333 15.167 -74.666 45.5 -99.999s70.166 -38 119.499 -38z" />
    <glyph glyph-name="quotesingle" unicode="'" horiz-adv-x="191" 
d="M69 497l-11 204h75l-11 -204h-53z" />
    <glyph glyph-name="parenleft" unicode="(" horiz-adv-x="389" 
d="M313 -213c-80.667 48 -142.334 111.501 -185.001 190.501s-64 169.5 -64 271.5s21.333 192.5 64 271.5s104.334 142.167 185.001 189.5l39 -50c-69.333 -40.667 -122.833 -96.667 -160.5 -168s-56.5 -152.333 -56.5 -243s18.833 -171.834 56.5 -243.501
s91.167 -127.5 160.5 -167.5z" />
    <glyph glyph-name="parenright" unicode=")" horiz-adv-x="389" 
d="M76 716c80.667 -48 142.334 -111.501 185.001 -190.501s64 -169.5 64 -271.5s-21.333 -192.5 -64 -271.5s-104.334 -142.167 -185.001 -189.5l-39 50c69.333 40.667 122.833 96.667 160.5 168s56.5 152.333 56.5 243s-18.833 171.834 -56.5 243.501
s-91.167 127.5 -160.5 167.5z" />
    <glyph glyph-name="asterisk" unicode="*" horiz-adv-x="446" 
d="M196 341l2 138l-119 -73l-29 45l124 73l-120 72l29 44l114 -71l-1 131h54l-1 -130l113 70l30 -44l-120 -72l125 -73l-31 -45l-118 73l2 -138h-54z" />
    <glyph glyph-name="plus" unicode="+" 
d="M269 145v181h-167v60h167v181h62v-181h167v-60h-167v-181h-62z" />
    <glyph glyph-name="comma" unicode="," horiz-adv-x="250" 
d="M44 -137l58 211h80l-80 -211h-58z" />
    <glyph glyph-name="hyphen" unicode="-" horiz-adv-x="447" 
d="M49 248v66h349v-66h-349z" />
    <glyph glyph-name="period" unicode="." horiz-adv-x="250" 
d="M125 -6c-14 0 -26 5 -36 15s-15 22 -15 36s5 26 15 36s22 15 36 15s26 -5 36 -15s15 -22 15 -36s-5 -26 -15 -36s-22 -15 -36 -15z" />
    <glyph glyph-name="slash" unicode="/" horiz-adv-x="457" 
d="M-67 -204l421 904h75l-422 -904h-74z" />
    <glyph glyph-name="zero" unicode="0" horiz-adv-x="662" 
d="M331 -11c-56 0 -105.333 15.333 -148 46s-76.167 73.167 -100.5 127.5s-36.5 116.833 -36.5 187.5s12.167 133.167 36.5 187.5s57.833 96.833 100.5 127.5s92 46 148 46s105.333 -15.333 148 -46s76.167 -73.167 100.5 -127.5s36.5 -116.833 36.5 -187.5
s-12.167 -133.167 -36.5 -187.5s-57.833 -96.833 -100.5 -127.5s-92 -46 -148 -46zM331 54c43.333 0 80.833 12.167 112.5 36.5s56.167 58.833 73.5 103.5s26 96.667 26 156c0 60 -8.66699 112.167 -26 156.5s-41.833 78.666 -73.5 102.999s-69.167 36.5 -112.5 36.5
c-42.667 0 -80 -12.167 -112 -36.5s-56.667 -58.666 -74 -102.999s-26 -96.5 -26 -156.5c0 -59.333 8.66699 -111.333 26 -156s42 -79.167 74 -103.5s69.333 -36.5 112 -36.5z" />
    <glyph glyph-name="one" unicode="1" horiz-adv-x="289" 
d="M146 0v623l-118 -52v67l144 62h47v-700h-73z" />
    <glyph glyph-name="two" unicode="2" horiz-adv-x="542" 
d="M49 0v52.999l280 306c22 24 39.167 45.167 51.5 63.5s21 35.5 26 51.5s7.5 33 7.5 51c0 35.333 -13.833 64.5 -41.5 87.5s-62.834 34.5 -105.501 34.5c-32.667 0 -63 -6.33301 -91 -19s-59.333 -34.667 -94 -66l-42 50c36.667 33.333 73.667 58.166 111 74.499
s76.333 24.5 117 24.5c42 0 79.333 -7.83301 112 -23.5s58.334 -37.167 77.001 -64.5s28 -58.666 28 -93.999c0 -23.333 -3 -44.833 -9 -64.5s-16.667 -40.667 -32 -63s-37.333 -49.166 -66 -80.499l-239 -259l361 1v-63h-451z" />
    <glyph glyph-name="three" unicode="3" horiz-adv-x="582" 
d="M284 -11c-48 0 -92.834 8.33789 -134.501 25.0049s-78.5 41.334 -110.5 74.001l48 47c29.333 -29.333 59.5 -50.5 90.5 -63.5s66.167 -19.5 105.5 -19.5c34 0 64.167 6 90.5 18s46.833 28.667 61.5 50s22 45.666 22 72.999c0 26 -6.5 49.167 -19.5 69.5
s-30.833 36.166 -53.5 47.499s-48.667 17 -78 17h-83v62h80c38 0 68.833 11.667 92.5 35s35.5 53.666 35.5 90.999c0 24.667 -6.66699 47 -20 67s-31.5 35.833 -54.5 47.5s-48.833 17.5 -77.5 17.5c-36 0 -68.167 -6.5 -96.5 -19.5s-57.166 -34.833 -86.499 -65.5l-48 48
c31.333 33.333 66.666 58.5 105.999 75.5s81.333 25.5 126 25.5c42.667 0 80.834 -8.33301 114.501 -25s60.167 -39.5 79.5 -68.5s29 -61.833 29 -98.5s-12 -69.5 -36 -98.5s-55.667 -49.167 -95 -60.5c47.333 -10.667 85.333 -31.334 114 -62.001s43 -66.334 43 -107.001
c0 -38.667 -10.5 -73.334 -31.5 -104.001s-50 -54.667 -87 -72s-79.167 -26 -126.5 -26z" />
    <glyph glyph-name="four" unicode="4" horiz-adv-x="619" 
d="M425 0v187h-398v58l393 455h78v-450h84v-63h-84v-187h-73zM117 250h308v357z" />
    <glyph glyph-name="five" unicode="5" horiz-adv-x="568" 
d="M277 -11c-92 0 -171.333 31.668 -238 95.001l45 49c30.667 -28.667 61.167 -49.5 91.5 -62.5s64.5 -19.5 102.5 -19.5c34 0 64 7 90 21s46.167 33.667 60.5 59s21.5 54.333 21.5 87c0 46.667 -15.833 84.334 -47.5 113.001s-73.167 43 -124.5 43
c-26.667 0 -52.667 -3.16699 -78 -9.5s-51.666 -16.5 -78.999 -30.5l-50 16l16 350h398v-63h-336l-11 -242c26.667 13.333 52.334 22.833 77.001 28.5s50.667 8.5 78 8.5c46 0 86.167 -8.83301 120.5 -26.5s61 -42.334 80 -74.001s28.5 -68.5 28.5 -110.5
c0 -46 -10.333 -86.333 -31 -121s-49.334 -61.834 -86.001 -81.501s-79.334 -29.5 -128.001 -29.5z" />
    <glyph glyph-name="six" unicode="6" horiz-adv-x="612" 
d="M331 -10c-54 0 -101.498 14.333 -142.498 43s-73.167 68.167 -96.5 118.5s-35 108.5 -35 174.5c0 77.333 13 144.833 39 202.5s62.667 102.5 110 134.5s102.333 48 165 48c29.333 0 58.333 -4 87 -12s54.334 -19.667 77.001 -35l-36 -56
c-20.667 12 -42.334 21.333 -65.001 28s-45.667 10 -69 10c-48 0 -89.5 -12.5 -124.5 -37.5s-62 -60.833 -81 -107.5s-29.167 -102.667 -30.5 -168c26 33.333 57 59.333 93 78s73.333 28 112 28c45.333 0 85.666 -9.33301 120.999 -28s63 -44.5 83 -77.5s30 -70.5 30 -112.5
c0 -44 -10.333 -83.5 -31 -118.5s-48.834 -62.5 -84.501 -82.5s-76.167 -30 -121.5 -30zM324.002 380c-36.667 0 -71.8301 -9.16211 -105.497 -27.4951s-62.834 -43.5 -87.501 -75.5c5.33301 -44.667 16.833 -83.834 34.5 -117.501s40.667 -59.834 69 -78.501
s60.166 -28 95.499 -28c32 0 60.5 7.16699 85.5 21.5s44.667 34.166 59 59.499s21.5 53.666 21.5 84.999s-7.33301 59.166 -22 83.499s-34.834 43.333 -60.501 57s-55.5 20.5 -89.5 20.5z" />
    <glyph glyph-name="seven" unicode="7" horiz-adv-x="555" 
d="M103 0l348 637h-420v63h498v-56l-344 -644h-82z" />
    <glyph glyph-name="eight" unicode="8" horiz-adv-x="615" 
d="M300 -11c-48 0 -90.667 8.66699 -128 26s-66.833 41.166 -88.5 71.499s-32.5 64.5 -32.5 102.5c0 28.667 7 55.167 21 79.5s33.5 45.333 58.5 63s53.5 30.167 85.5 37.5c-40.667 11.333 -73.834 31.666 -99.501 60.999s-38.5 62.333 -38.5 99
c0 34.667 9.66699 65.667 29 93s45.833 49 79.5 65s71.5 24 113.5 24c42.667 0 80.667 -8 114 -24s59.666 -37.667 78.999 -65s29 -58.333 29 -93c0 -36.667 -12.667 -69.667 -38 -99s-58.666 -49.666 -99.999 -60.999c48.667 -11.333 88.334 -33.5 119.001 -66.5
s46 -70.833 46 -113.5c0 -38 -10.667 -72.167 -32 -102.5s-50.833 -54.166 -88.5 -71.499s-80.5 -26 -128.5 -26zM300 399c28.667 0 54.5 5.66699 77.5 17s41.167 26.5 54.5 45.5s20 40.5 20 64.5s-6.66699 45.667 -20 65s-31.5 34.5 -54.5 45.5s-48.833 16.5 -77.5 16.5
s-54.5 -5.5 -77.5 -16.5s-41.167 -26.167 -54.5 -45.5s-20 -41 -20 -65s6.66699 -45.5 20 -64.5s31.5 -34.167 54.5 -45.5s48.833 -17 77.5 -17zM300 47c34 0 64.333 6.33301 91 19s47.834 30 63.501 52s23.5 46.667 23.5 74s-7.83301 52 -23.5 74
s-36.834 39.333 -63.501 52s-57 19 -91 19s-64.333 -6.33301 -91 -19s-47.834 -30 -63.501 -52s-23.5 -46.667 -23.5 -74s7.83301 -52 23.5 -74s36.834 -39.333 63.501 -52s57 -19 91 -19z" />
    <glyph glyph-name="nine" unicode="9" horiz-adv-x="612" 
d="M281 711c54 0 101.498 -14.334 142.498 -43.001s73.167 -68.167 96.5 -118.5s35 -108.5 35 -174.5c0 -77.333 -13 -144.833 -39 -202.5s-62.5 -102.5 -109.5 -134.5s-102.167 -48 -165.5 -48c-28.667 0 -57.5 4.16699 -86.5 12.5s-54.833 19.833 -77.5 34.5l36 56
c20.667 -12 42.5 -21.333 65.5 -28s45.833 -10 68.5 -10c48 0 89.5 12.5 124.5 37.5s62.167 61 81.5 108s29.333 102.833 30 167.5c-26 -33.333 -57 -59.333 -93 -78s-73.333 -28 -112 -28c-45.333 0 -85.666 9.5 -120.999 28.5s-63 44.833 -83 77.5s-30 70 -30 112
c0 44.667 10.333 84.334 31 119.001s48.834 62 84.501 82s76.167 30 121.5 30zM287.998 320.999c36.667 0 71.8301 9.16699 105.497 27.5s62.834 43.5 87.501 75.5c-4.66699 45.333 -16 84.666 -34 117.999s-41 59.333 -69 78s-60 28 -96 28
c-31.333 0 -59.666 -7.16699 -84.999 -21.5s-45.166 -34 -59.499 -59s-21.5 -53.5 -21.5 -85.5c0 -31.333 7.33301 -59.166 22 -83.499s35 -43.333 61 -57s55.667 -20.5 89 -20.5z" />
    <glyph glyph-name="colon" unicode=":" horiz-adv-x="250" 
d="M125 -6c-14 0 -26 5 -36 15s-15 22 -15 36s5 26 15 36s22 15 36 15s26 -5 36 -15s15 -22 15 -36s-5 -26 -15 -36s-22 -15 -36 -15zM125 410c-14 0 -26 5 -36 15s-15 22 -15 36s5 26 15 36s22 15 36 15s26 -5 36 -15s15 -22 15 -36s-5 -26 -15 -36s-22 -15 -36 -15z" />
    <glyph glyph-name="semicolon" unicode=";" horiz-adv-x="250" 
d="M133 410c-14 0 -26 5 -36 15s-15 22 -15 36s5 26 15 36s22 15 36 15s26 -5 36 -15s15 -22 15 -36s-5 -26 -15 -36s-22 -15 -36 -15zM37 -137l58 211h80l-80 -211h-58z" />
    <glyph glyph-name="less" unicode="&#x3c;" 
d="M423 103l-316 246l317 245l37 -47l-261 -197l261 -199z" />
    <glyph glyph-name="equal" unicode="=" 
d="M102 245v60h396v-60h-396zM102 408v60h396v-60h-396z" />
    <glyph glyph-name="greater" unicode="&#x3e;" 
d="M177 594l316 -246l-317 -245l-37 47l261 197l-261 199z" />
    <glyph glyph-name="question" unicode="?" horiz-adv-x="506" 
d="M188 199c-1.33301 30.667 0.333008 57.167 5 79.5s13.334 42.333 26.001 60s29.667 34.167 51 49.5l44 31c29.333 21.333 49.833 40.666 61.5 57.999s17.5 37.333 17.5 60c0 20.667 -6.5 39 -19.5 55s-30.333 28.833 -52 38.5s-46.167 14.5 -73.5 14.5
c-32.667 0 -63.5 -7.66699 -92.5 -23s-54.833 -37.666 -77.5 -66.999l-58 38c19.333 25.333 41.166 46.833 65.499 64.5s50.5 31 78.5 40s57.333 13.5 88 13.5c40.667 0 77.167 -7.5 109.5 -22.5s57.833 -35.5 76.5 -61.5s28 -55.667 28 -89
c0 -22.667 -3.5 -43.167 -10.5 -61.5s-19 -36.166 -36 -53.499s-40.5 -36.333 -70.5 -57l-34 -24c-24.667 -16.667 -42 -36.334 -52 -59.001s-13.667 -50.667 -11 -84h-64zM219.999 -6c-14 0 -26 5 -36 15s-15 22 -15 36s5 26 15 36s22 15 36 15s26 -5 36 -15s15 -22 15 -36
s-5 -26 -15 -36s-22 -15 -36 -15z" />
    <glyph glyph-name="at" unicode="@" horiz-adv-x="776" 
d="M403 -144c-51.333 0 -98.835 8.8252 -142.502 26.4922s-81.667 42.334 -114 74.001s-57.5 68.834 -75.5 111.501s-27 89 -27 139c0 52.667 9 101.334 27 146.001s43 83.667 75 117s69.667 59.333 113 78s90.333 28 141 28c47.333 0 91.166 -7.83301 131.499 -23.5
s75.5 -37.334 105.5 -65.001s53.5 -60.167 70.5 -97.5s25.5 -77.666 25.5 -120.999c0 -40.667 -7.66699 -77.167 -23 -109.5s-36.333 -57.833 -63 -76.5s-57 -28 -91 -28c-43.333 0 -74.333 13.667 -93 41c-16.667 -14.667 -34 -25.834 -52 -33.501s-36 -11.5 -54 -11.5
c-27.333 0 -51.833 6.66699 -73.5 20s-38.667 31.333 -51 54s-18.5 48.334 -18.5 77.001c0 32.667 7.5 62.334 22.5 89.001s35.333 48 61 64s54.167 24 85.5 24c41.333 0 75 -13 101 -39l5 26h56l-39 -192c-4.66699 -24 -2.16699 -42.5 7.5 -55.5s25.834 -19.5 48.501 -19.5
c23.333 0 44.333 7.33301 63 22s33.334 34.834 44.001 60.501s16 54.167 16 85.5c0 50.667 -12.667 96 -38 136s-59.5 71.5 -102.5 94.5s-91.833 34.5 -146.5 34.5c-42.667 0 -82.5 -8.16699 -119.5 -24.5s-69.5 -39.166 -97.5 -68.499s-49.667 -63.666 -65 -102.999
s-23 -81.666 -23 -126.999c0 -59.333 13.5 -112.166 40.5 -158.499s64.167 -82.833 111.5 -109.5s101 -40 161 -40c62.667 0 119.334 13.667 170.001 41l18 -41c-28.667 -14.667 -59.167 -25.834 -91.5 -33.501s-65.5 -11.5 -99.5 -11.5zM368.998 97.9922
c30.667 0 57.667 11.668 81 35.001c-0.666992 7.33301 -1 14.666 -1 21.999s1 15.333 3 24l21 106c-9.33301 14.667 -22 26 -38 34s-33.667 12 -53 12c-20.667 0 -39.5 -5.66699 -56.5 -17s-30.667 -26.5 -41 -45.5s-15.5 -39.833 -15.5 -62.5c0 -32 9.33301 -58 28 -78
s42.667 -30 72 -30z" />
    <glyph glyph-name="A" unicode="A" horiz-adv-x="679" 
d="M4 0l290 700h93l288 -700h-84l-88 220h-330l-89 -220h-80zM200 286h276l-138 343z" />
    <glyph glyph-name="B" unicode="B" horiz-adv-x="657" 
d="M77 0l0.000976562 700h284c45.333 0 84.5 -7.33301 117.5 -22s58.5 -35.5 76.5 -62.5s27 -58.833 27 -95.5c0 -36 -9.5 -67.333 -28.5 -94s-45.167 -47 -78.5 -61c42 -12.667 75.167 -33.667 99.5 -63s36.5 -64.333 36.5 -105c0 -40 -9.83301 -74.833 -29.5 -104.5
s-47.334 -52.5 -83.001 -68.5s-77.5 -24 -125.5 -24h-296zM154.001 395h203c45.333 0 81.5 10.667 108.5 32s40.5 50.333 40.5 87s-13.5 65.667 -40.5 87s-63.167 32 -108.5 32h-203v-238zM154.001 67h213c50.667 0 91 12 121 36s45 56 45 96s-15 72 -45 96
s-70.333 36 -121 36h-213v-264z" />
    <glyph glyph-name="C" unicode="C" horiz-adv-x="722" 
d="M407 -11c-50.667 0 -97.999 9.16406 -141.999 27.4971s-82.667 44 -116 77s-59.166 71.333 -77.499 115s-27.5 90.834 -27.5 141.501s9.16699 97.834 27.5 141.501s44.166 82 77.499 115s72 58.667 116 77s91.333 27.5 142 27.5c36.667 0 71.834 -4.5 105.501 -13.5
s65 -22 94 -39s54.833 -37.833 77.5 -62.5l-51 -54c-27.333 31.333 -61 55.5 -101 72.5s-81.667 25.5 -125 25.5c-40.667 0 -78.334 -7.33301 -113.001 -22s-64.834 -35.167 -90.501 -61.5s-45.667 -57 -60 -92s-21.5 -73.167 -21.5 -114.5
c0 -40.667 7.16699 -78.667 21.5 -114s34.5 -66.166 60.5 -92.499s56.5 -46.833 91.5 -61.5s72.833 -22 113.5 -22c43.333 0 84.666 8.5 123.999 25.5s72.333 40.5 99 70.5l50 -52c-23.333 -24 -49.5 -44.667 -78.5 -62s-60.167 -30.5 -93.5 -39.5
s-67.666 -13.5 -102.999 -13.5z" />
    <glyph glyph-name="D" unicode="D" horiz-adv-x="720" 
d="M154 70h158c40.667 0 78.334 7 113.001 21s65 33.667 91 59s46.167 55 60.5 89s21.5 71 21.5 111s-7.16699 77 -21.5 111s-34.5 63.667 -60.5 89s-56.333 45 -91 59s-72.334 21 -113.001 21h-158v-560zM77 0v700h231c53.333 0 102.333 -8.66699 147 -26
s83.5 -41.666 116.5 -72.999s58.667 -68.333 77 -111s27.5 -89.334 27.5 -140.001s-9 -97.334 -27 -140.001s-43.5 -79.667 -76.5 -111s-72 -55.666 -117 -72.999s-94.167 -26 -147.5 -26h-231z" />
    <glyph glyph-name="E" unicode="E" horiz-adv-x="616" 
d="M77 0v700h501v-68h-424v-245h277v-67h-277v-252h428v-68h-505z" />
    <glyph glyph-name="F" unicode="F" horiz-adv-x="607" 
d="M77 0v700h501v-68h-424v-250h278v-67h-278v-315h-77z" />
    <glyph glyph-name="G" unicode="G" horiz-adv-x="788" 
d="M406 -11c-50.667 0 -97.832 9.33203 -141.499 27.999s-82 44.5 -115 77.5s-58.833 71.333 -77.5 115s-28 90.5 -28 140.5s9.16699 96.833 27.5 140.5s44 82 77 115s71.333 58.833 115 77.5s90.834 28 141.501 28c54 0 105 -10 153 -30s89 -48.333 123 -85l-52 -53
c-26.667 30.667 -59.834 54.5 -99.501 71.5s-81.167 25.5 -124.5 25.5c-40 0 -77.167 -7.33301 -111.5 -22s-64.333 -35.167 -90 -61.5s-45.667 -57 -60 -92s-21.5 -73.167 -21.5 -114.5c0 -40.667 7.16699 -78.667 21.5 -114s34.333 -66.166 60 -92.499
s55.667 -46.833 90 -61.5s71.5 -22 111.5 -22c47.333 0 90.166 10.333 128.499 31s69.333 49 93 85s37.5 76.667 41.5 122h-251v68h329v-31c0 -48.667 -8.66699 -94 -26 -136s-41.333 -78.667 -72 -110s-66.667 -55.833 -108 -73.5s-86 -26.5 -134 -26.5z" />
    <glyph glyph-name="H" unicode="H" horiz-adv-x="715" 
d="M77 0v700h77v-313h407v313h77v-700h-77v318h-407v-318h-77z" />
    <glyph glyph-name="I" unicode="I" horiz-adv-x="231" 
d="M77 0v700h77v-700h-77z" />
    <glyph glyph-name="J" unicode="J" 
d="M271 -11c-60 0 -112.165 15.666 -156.498 46.999s-76.833 75.333 -97.5 132l70 29c18 -46 42.5 -80.333 73.5 -103s68.167 -34 111.5 -34c57.333 0 103 18.5 137 55.5s51 86.833 51 149.5v435h77v-436c0 -56 -10.833 -104.667 -32.5 -146
s-52.334 -73.166 -92.001 -95.499s-86.834 -33.5 -141.501 -33.5z" />
    <glyph glyph-name="K" unicode="K" horiz-adv-x="617" 
d="M77 0v700h77v-332l362 332h101l-380 -343l388 -357h-108l-363 336v-336h-77z" />
    <glyph glyph-name="L" unicode="L" horiz-adv-x="604" 
d="M77 0v700h77v-631h417v-69h-494z" />
    <glyph glyph-name="M" unicode="M" horiz-adv-x="847" 
d="M77 0v700h108l239 -497l238 497h108v-700h-73v612l-274 -562l-274 561v-611h-72z" />
    <glyph glyph-name="N" unicode="N" horiz-adv-x="725" 
d="M77 0v700h77l421 -568v568h73v-700h-68l-430 583v-583h-73z" />
    <glyph glyph-name="O" unicode="O" horiz-adv-x="809" 
d="M405 -11c-50.667 0 -97.834 9.16699 -141.501 27.5s-82 44 -115 77s-58.667 71.333 -77 115s-27.5 90.834 -27.5 141.501s9.16699 97.834 27.5 141.501s44 82 77 115s71.333 58.667 115 77s90.834 27.5 141.501 27.5c50 0 96.833 -9.16699 140.5 -27.5s82 -44 115 -77
s58.667 -71.333 77 -115s27.5 -90.834 27.5 -141.501s-9.16699 -97.834 -27.5 -141.501s-44 -82 -77 -115s-71.333 -58.667 -115 -77s-90.5 -27.5 -140.5 -27.5zM405 60c40 0 77 7.33203 111 21.999s63.833 35.167 89.5 61.5s45.667 57.166 60 92.499s21.5 73.333 21.5 114
c0 41.333 -7.16699 79.5 -21.5 114.5s-34.333 65.667 -60 92s-55.5 46.833 -89.5 61.5s-71 22 -111 22s-77.167 -7.33301 -111.5 -22s-64.333 -35.167 -90 -61.5s-45.667 -57 -60 -92s-21.5 -72.833 -21.5 -113.5c0 -41.333 7.16699 -79.666 21.5 -114.999
s34.333 -66.166 60 -92.499s55.667 -46.833 90 -61.5s71.5 -22 111.5 -22z" />
    <glyph glyph-name="P" unicode="P" horiz-adv-x="647" 
d="M77 0l-0.000976562 700h304c46 0 85.833 -8.33301 119.5 -25s59.834 -40.167 78.501 -70.5s28 -65.833 28 -106.5s-9.33301 -76.167 -28 -106.5s-45 -54 -79 -71s-73.667 -25.5 -119 -25.5h-227v-295h-77zM153.999 362l221 0.000976562c47.333 0 85 12.167 113 36.5
s42 57.166 42 98.499s-14 74 -42 98s-65.667 36 -113 36h-221v-269z" />
    <glyph glyph-name="Q" unicode="Q" horiz-adv-x="809" 
d="M645 -16l-49.002 59c-27.333 -16.667 -57.166 -29.834 -89.499 -39.501s-66.166 -14.5 -101.499 -14.5c-50.667 0 -97.834 9.16699 -141.501 27.5s-82 44 -115 77s-58.667 71.333 -77 115s-27.5 90.834 -27.5 141.501s9.16699 97.834 27.5 141.501s44 82 77 115
s71.333 58.667 115 77s90.834 27.5 141.501 27.5c50 0 96.833 -9.16699 140.5 -27.5s82 -44 115 -77s58.667 -71.333 77 -115s27.5 -90.834 27.5 -141.501c0 -52.667 -10.333 -102 -31 -148s-48.667 -85.333 -84 -118l74 -89zM404.998 60c26.667 0 52 3.33105 76 9.99805
s46.333 16.334 67 29.001l-100 119l79 12l75 -90c26.667 26.667 47.5 58 62.5 94s22.5 74.667 22.5 116s-7.16699 79.5 -21.5 114.5s-34.333 65.667 -60 92s-55.5 46.833 -89.5 61.5s-71 22 -111 22s-77.167 -7.33301 -111.5 -22s-64.333 -35.167 -90 -61.5
s-45.667 -57 -60 -92s-21.5 -73.167 -21.5 -114.5c0 -40.667 7.16699 -78.667 21.5 -114s34.333 -66.166 60 -92.499s55.667 -46.833 90 -61.5s71.5 -22 111.5 -22z" />
    <glyph glyph-name="R" unicode="R" horiz-adv-x="645" 
d="M77 0v700h300c46 0 86 -8.33301 120 -25s60.5 -40 79.5 -70s28.5 -65.333 28.5 -106c0 -46 -13.5 -85.5 -40.5 -118.5s-63.167 -56.167 -108.5 -69.5l157 -311h-85l-150 301h-224v-301h-77zM154 366h218c47.333 0 85.166 12 113.499 36s42.5 56.333 42.5 97
c0 40 -14.167 72 -42.5 96s-66.166 36 -113.499 36h-218v-265z" />
    <glyph glyph-name="S" unicode="S" 
d="M304 -10c-55.333 0 -108.334 11.1699 -159.001 33.5029s-95.334 54.5 -134.001 96.5l51 53c36 -38.667 74.5 -67.667 115.5 -87s84.167 -29 129.5 -29c36.667 0 69.167 5.83301 97.5 17.5s50.5 28 66.5 49s24 44.833 24 71.5c0 36 -12.5 63.667 -37.5 83
s-66.167 33.666 -123.5 42.999l-101 16c-67.333 11.333 -117 31.333 -149 60s-48 67.667 -48 117c0 38.667 10.333 72.667 31 102s49.5 52.166 86.5 68.499s79.833 24.5 128.5 24.5c49.333 0 97.833 -8 145.5 -24s91.167 -39 130.5 -69l-44 -60c-76.667 58 -155 87 -235 87
c-33.333 0 -62.666 -5.16699 -87.999 -15.5s-45 -24.666 -59 -42.999s-21 -39.833 -21 -64.5c0 -32.667 11 -57.667 33 -75s58.333 -30 109 -38l100 -16c76.667 -12.667 132.334 -34.167 167.001 -64.5s52 -72.833 52 -127.5c0 -40.667 -11.333 -76.834 -34 -108.501
s-54.167 -56.334 -94.5 -74.001s-86.833 -26.5 -139.5 -26.5z" />
    <glyph glyph-name="T" unicode="T" horiz-adv-x="617" 
d="M270 0v631h-253v69h583v-69h-253v-631h-77z" />
    <glyph glyph-name="U" unicode="U" horiz-adv-x="704" 
d="M352 -11c-59.333 0 -110.668 12.5 -154.001 37.5s-76.666 60.5 -99.999 106.5s-35 100.333 -35 163v404h77v-404c0 -48 8.66699 -89.667 26 -125s42 -62.666 74 -81.999s69.333 -29 112 -29c43.333 0 80.833 9.66699 112.5 29s56.167 46.666 73.5 81.999s26 77 26 125
v404h77v-404c0 -62.667 -11.833 -117 -35.5 -163s-57 -81.5 -100 -106.5s-94.167 -37.5 -153.5 -37.5z" />
    <glyph glyph-name="V" unicode="V" horiz-adv-x="679" 
d="M291 0l-287 700h83l253 -628l257 628h78l-291 -700h-93z" />
    <glyph glyph-name="W" unicode="W" horiz-adv-x="882" 
d="M186 0l-151 700h78l119 -578l173 578h75l173 -576l120 576h75l-151 -700h-78l-177 593l-178 -593h-78z" />
    <glyph glyph-name="X" unicode="X" horiz-adv-x="638" 
d="M3 0l270 363l-253 337h94l205 -278l205 278h90l-250 -336l271 -364h-93l-224 305l-225 -305h-90z" />
    <glyph glyph-name="Y" unicode="Y" horiz-adv-x="639" 
d="M281 0v285l-278 415h90l229 -347l228 347h87l-279 -418v-282h-77z" />
    <glyph glyph-name="Z" unicode="Z" horiz-adv-x="604" 
d="M24 0v55l445 577h-441v68h542v-55l-447 -577h455v-68h-554z" />
    <glyph glyph-name="bracketleft" unicode="[" horiz-adv-x="347" 
d="M57 -207v907h252v-60h-181v-787h181v-60h-252z" />
    <glyph glyph-name="backslash" unicode="\" horiz-adv-x="462" 
d="M451 -204l-421 904h77l422 -904h-78z" />
    <glyph glyph-name="bracketright" unicode="]" horiz-adv-x="347" 
d="M290 700v-907h-252v60h181v787h-181v60h252z" />
    <glyph glyph-name="asciicircum" unicode="^" horiz-adv-x="536" 
d="M49 350l187 350h65l187 -350h-69l-151 285l-151 -285h-68z" />
    <glyph glyph-name="underscore" unicode="_" horiz-adv-x="482" 
d="M-1 -137v57h484v-57h-484z" />
    <glyph glyph-name="grave" unicode="`" 
d="M290 600l-123 116h96l92 -116h-65z" />
    <glyph glyph-name="a" unicode="a" horiz-adv-x="516" 
d="M221 -9c-36.667 0 -68.832 6.33301 -96.499 19s-49.334 30.334 -65.001 53.001s-23.5 49 -23.5 79c0 47.333 18 84.666 54 111.999s84.667 41 146 41c54 0 103 -11.333 147 -34v66c0 40 -11.333 70.167 -34 90.5s-55.667 30.5 -99 30.5c-24.667 0 -49.5 -3.5 -74.5 -10.5
s-52.5 -18.167 -82.5 -33.5l-28 57c36 17.333 69.333 30 100 38s61.334 12 92.001 12c63.333 0 112.166 -15 146.499 -45s51.5 -73 51.5 -129v-337h-72v49c-22.667 -19.333 -47.5 -33.833 -74.5 -43.5s-56.167 -14.5 -87.5 -14.5zM107.002 144
c0 -28 11.832 -50.833 35.499 -68.5s54.167 -26.5 91.5 -26.5c30 0 57.333 4.66699 82 14s47 24 67 44v94c-20.667 14 -42.667 24.167 -66 30.5s-49.666 9.5 -78.999 9.5c-40 0 -71.833 -8.83301 -95.5 -26.5s-35.5 -41.167 -35.5 -70.5z" />
    <glyph glyph-name="b" unicode="b" horiz-adv-x="590" 
d="M63 0v700.001l74 17v-269c42.667 40.667 96.334 61 161.001 61c47.333 0 90 -11.5 128 -34.5s68.167 -53.833 90.5 -92.5s33.5 -82.334 33.5 -131.001s-11.167 -92.5 -33.5 -131.5s-52.5 -70 -90.5 -93s-81 -34.5 -129 -34.5c-29.333 0 -57.833 5 -85.5 15
s-52.834 24.333 -75.501 43v-50h-73zM291 57.001c35.333 0 67.001 8.49902 95.001 25.499s50.167 40 66.5 69s24.5 61.833 24.5 98.5s-8.16699 69.667 -24.5 99s-38.5 52.5 -66.5 69.5s-59.667 25.5 -95 25.5c-31.333 0 -60.5 -6.16699 -87.5 -18.5
s-49.167 -29.5 -66.5 -51.5v-248c17.333 -21.333 39.666 -38.166 66.999 -50.499s56.333 -18.5 87 -18.5z" />
    <glyph glyph-name="c" unicode="c" horiz-adv-x="513" 
d="M295 -9c-47.333 0 -90.3311 11.499 -128.998 34.499s-69.334 54.167 -92.001 93.5s-34 83.333 -34 132s11.333 92.5 34 131.5s53.334 70.167 92.001 93.5s81.667 35 129 35c36.667 0 72 -6.83301 106 -20.5s64 -33.167 90 -58.5l-47 -54
c-20 21.333 -42.833 37.5 -68.5 48.5s-52.167 16.5 -79.5 16.5c-34 0 -64.833 -8.5 -92.5 -25.5s-49.667 -40 -66 -69s-24.5 -61.5 -24.5 -97.5s8.16699 -68.667 24.5 -98s38.5 -52.5 66.5 -69.5s59 -25.5 93 -25.5c27.333 0 53.166 5.33301 77.499 16
s47.166 26.334 68.499 47.001l46 -50c-26.667 -25.333 -56.667 -45 -90 -59s-68 -21 -104 -21z" />
    <glyph glyph-name="d" unicode="d" horiz-adv-x="590" 
d="M292 -8c-46.667 0 -89.165 11.5 -127.498 34.5s-68.666 54 -90.999 93s-33.5 82.833 -33.5 131.5s11.167 92.334 33.5 131.001s52.666 69.5 90.999 92.5s81.166 34.5 128.499 34.5c29.333 0 57.666 -4.83301 84.999 -14.5s52.333 -23.834 75 -42.501v248l74 17v-717h-73
v53c-44 -40.667 -98 -61 -162 -61zM299.002 57c31.333 0 60.5 6.16699 87.5 18.5s49.167 29.5 66.5 51.5v248c-17.333 21.333 -39.5 38.166 -66.5 50.499s-56.167 18.5 -87.5 18.5c-34.667 0 -66.167 -8.33301 -94.5 -25s-50.666 -39.5 -66.999 -68.5
s-24.5 -61.833 -24.5 -98.5s8.16699 -69.667 24.5 -99s38.666 -52.666 66.999 -69.999s59.833 -26 94.5 -26z" />
    <glyph glyph-name="e" unicode="e" horiz-adv-x="564" 
d="M298 -9c-48 0 -91.502 11.5 -130.502 34.5s-70 54.167 -93 93.5s-34.5 83.333 -34.5 132c0 48 11 91.5 33 130.5s51.667 70 89 93s79 34.5 125 34.5c44.667 0 84.834 -11.5 120.501 -34.5s64 -54 85 -93s31.5 -82.5 31.5 -130.5v-23h-411c4 -32.667 14.5 -62 31.5 -88
s39.167 -46.5 66.5 -61.5s57.333 -22.5 90 -22.5c26 0 51.333 4 76 12s45.334 19.333 62.001 34l46 -49c-28 -20.667 -57.167 -36.167 -87.5 -46.5s-63.5 -15.5 -99.5 -15.5zM114.998 287h335c-4 30 -13.833 56.833 -29.5 80.5s-35.167 42.334 -58.5 56.001
s-49 20.5 -77 20.5c-28.667 0 -55 -6.66699 -79 -20s-44 -31.833 -60 -55.5s-26.333 -50.834 -31 -81.501z" />
    <glyph glyph-name="f" unicode="f" horiz-adv-x="374" 
d="M135 0l-0.00292969 437.999h-118v63h118v95c0 49.333 13.333 87 40 113s65 39 115 39c13.333 0 25.333 -0.666992 36 -2s21 -3.66602 31 -6.99902v-66c-11.333 3.33301 -21.666 5.83301 -30.999 7.5s-19.666 2.5 -30.999 2.5c-29.333 0 -51.166 -7.16699 -65.499 -21.5
s-21.5 -36.833 -21.5 -67.5v-93h149v-63h-149v-438h-73z" />
    <glyph glyph-name="g" unicode="g" horiz-adv-x="586" 
d="M307 -214c-34.667 0 -69.001 4.5 -103.001 13.5s-65 21.833 -93 38.5l32 58c30 -16 57.833 -27.667 83.5 -35s51.5 -11 77.5 -11c47.333 0 83.333 11.333 108 34s37 56 37 100v70c-46 -38.667 -99 -58 -159 -58c-46 0 -88 11.333 -126 34s-68.167 53.5 -90.5 92.5
s-33.5 82.5 -33.5 130.5s11.167 91.5 33.5 130.5s52.5 69.833 90.5 92.5s80.667 34 128 34c28.667 0 56.5 -5 83.5 -15s51.833 -24.667 74.5 -44v50h73v-516c0 -64 -18.667 -113.167 -56 -147.5s-90.666 -51.5 -159.999 -51.5zM295.999 61c32 0 61.333 6 88 18
s48.334 29 65.001 51v246c-16.667 21.333 -38.5 38 -65.5 50s-56.167 18 -87.5 18c-34.667 0 -65.834 -8.33301 -93.501 -25s-49.5 -39.5 -65.5 -68.5s-24 -61.5 -24 -97.5s8.16699 -68.5 24.5 -97.5s38.333 -52 66 -69s58.5 -25.5 92.5 -25.5z" />
    <glyph glyph-name="h" unicode="h" horiz-adv-x="549" 
d="M63 0l-0.000976562 699.999l74 17v-275c39.333 46 92 69 158 69c38 0 71.5 -8.16699 100.5 -24.5s51.667 -39 68 -68s24.5 -62.833 24.5 -101.5v-317h-73v302c0 44.667 -12.5 79.834 -37.5 105.501s-59.167 38.5 -102.5 38.5c-30 0 -56.667 -6.66699 -80 -20
s-42.666 -32.333 -57.999 -57v-369h-74z" />
    <glyph glyph-name="i" unicode="i" horiz-adv-x="200" 
d="M63 0v501h74v-501h-74zM100 597c-13.333 0 -25 5 -35 15s-15 22 -15 36c0 13.333 5 24.833 15 34.5s21.667 14.5 35 14.5c14 0 25.833 -4.83301 35.5 -14.5s14.5 -21.5 14.5 -35.5c0 -13.333 -4.83301 -25 -14.5 -35s-21.5 -15 -35.5 -15z" />
    <glyph glyph-name="j" unicode="j" horiz-adv-x="200" 
d="M100 597c-13.333 0 -25 5 -35 15s-15 21.667 -15 35c0 14 5 25.833 15 35.5s21.667 14.5 35 14.5c14 0 25.833 -4.83301 35.5 -14.5s14.5 -21.5 14.5 -35.5c0 -13.333 -4.83301 -25 -14.5 -35s-21.5 -15 -35.5 -15zM8 -214c-9.33301 0 -18.001 0.668945 -26.001 2.00195
s-14.667 2.66602 -20 3.99902v62c10.667 -2.66699 23 -4 37 -4c23.333 0 39.833 5.33301 49.5 16s14.5 28 14.5 52v583h74v-589c0 -40.667 -11.167 -71.834 -33.5 -93.501s-54.166 -32.5 -95.499 -32.5z" />
    <glyph glyph-name="k" unicode="k" horiz-adv-x="494" 
d="M63 0v700l74 17v-442l262 226h90l-275 -238l288 -263h-101l-264 240v-240h-74z" />
    <glyph glyph-name="l" unicode="l" horiz-adv-x="200" 
d="M63 0v700l74 17v-717h-74z" />
    <glyph glyph-name="m" unicode="m" horiz-adv-x="859" 
d="M63 0v500.999h74v-55c38 43.333 87 65 147 65c35.333 0 66.666 -8.16699 93.999 -24.5s48.666 -38.5 63.999 -66.5c20.667 30.667 45.334 53.5 74.001 68.5s61.334 22.5 98.001 22.5s68.667 -8.16699 96 -24.5s48.833 -39 64.5 -68s23.5 -62.833 23.5 -101.5v-317h-73
v302c0 44.667 -11.667 79.834 -35 105.501s-55 38.5 -95 38.5c-27.333 0 -52.333 -6.83301 -75 -20.5s-42 -34.167 -58 -61.5c1.33301 -7.33301 2.5 -14.833 3.5 -22.5s1.5 -15.834 1.5 -24.501v-317h-73v302c0 44.667 -11.667 79.834 -35 105.501
s-54.666 38.5 -93.999 38.5c-26.667 0 -50.834 -6.16699 -72.501 -18.5s-40.167 -30.5 -55.5 -54.5v-373h-74z" />
    <glyph glyph-name="n" unicode="n" horiz-adv-x="549" 
d="M63 0l-0.000976562 500.999h74v-59c39.333 46 92 69 158 69c38 0 71.5 -8.16699 100.5 -24.5s51.667 -39 68 -68s24.5 -62.833 24.5 -101.5v-317h-73v302c0 44.667 -12.5 79.834 -37.5 105.501s-59.167 38.5 -102.5 38.5c-30 0 -56.667 -6.66699 -80 -20
s-42.666 -32.333 -57.999 -57v-369h-74z" />
    <glyph glyph-name="o" unicode="o" horiz-adv-x="592" 
d="M296 -10c-47.333 0 -90.5 11.5 -129.5 34.5s-69.833 54.167 -92.5 93.5s-34 83.333 -34 132s11.333 92.667 34 132s53.5 70.5 92.5 93.5s82.167 34.5 129.5 34.5c48 0 91.333 -11.5 130 -34.5s69.334 -54.167 92.001 -93.5s34 -83.333 34 -132s-11.333 -92.667 -34 -132
s-53.334 -70.5 -92.001 -93.5s-82 -34.5 -130 -34.5zM296 56c34 0 64.833 8.66699 92.5 26s49.667 40.666 66 69.999s24.5 62 24.5 98c0 36.667 -8.16699 69.5 -24.5 98.5s-38.333 52.167 -66 69.5s-58.5 26 -92.5 26s-64.833 -8.66699 -92.5 -26s-49.667 -40.5 -66 -69.5
s-24.5 -61.833 -24.5 -98.5c0 -36 8.16699 -68.667 24.5 -98s38.333 -52.666 66 -69.999s58.5 -26 92.5 -26z" />
    <glyph glyph-name="p" unicode="p" horiz-adv-x="590" 
d="M63 -204l-0.000976562 705.001h73v-54c43.333 41.333 97.333 62 162 62c47.333 0 90 -11.5 128 -34.5s68.167 -53.833 90.5 -92.5s33.5 -82.334 33.5 -131.001s-11.167 -92.5 -33.5 -131.5s-52.5 -70 -90.5 -93s-81 -34.5 -129 -34.5c-29.333 0 -57.666 5 -84.999 15
s-52.333 24.333 -75 43v-254h-74zM290.999 57.001c35.333 0 67.001 8.49902 95.001 25.499s50.167 40 66.5 69s24.5 61.833 24.5 98.5s-8.16699 69.667 -24.5 99s-38.5 52.5 -66.5 69.5s-59.667 25.5 -95 25.5c-31.333 0 -60.5 -6.16699 -87.5 -18.5
s-49.167 -29.5 -66.5 -51.5v-248c17.333 -21.333 39.666 -38.166 66.999 -50.499s56.333 -18.5 87 -18.5z" />
    <glyph glyph-name="q" unicode="q" horiz-adv-x="590" 
d="M453 -204l0.000976562 255.999c-44 -40 -97.667 -60 -161 -60c-46.667 0 -89.167 11.5 -127.5 34.5s-68.666 54 -90.999 93s-33.5 82.833 -33.5 131.5s11.167 92.334 33.5 131.001s52.666 69.5 90.999 92.5s81.166 34.5 128.499 34.5c30 0 58.833 -5 86.5 -15
s52.5 -24 74.5 -42v49h73v-705h-74zM299.001 56.999c31.333 0 60.5 6.16699 87.5 18.5s49.167 29.5 66.5 51.5v248c-17.333 21.333 -39.5 38.166 -66.5 50.499s-56.167 18.5 -87.5 18.5c-34.667 0 -66.167 -8.33301 -94.5 -25s-50.666 -39.5 -66.999 -68.5
s-24.5 -61.833 -24.5 -98.5s8.16699 -69.667 24.5 -99s38.666 -52.666 66.999 -69.999s59.833 -26 94.5 -26z" />
    <glyph glyph-name="r" unicode="r" horiz-adv-x="346" 
d="M63 0l0.000976562 501.001h74v-71c15.333 26 34.833 46.167 58.5 60.5s50.834 21.5 81.501 21.5c17.333 0 33 -2.33301 47 -7v-68c-8.66699 3.33301 -17.334 5.66602 -26.001 6.99902s-17.334 2 -26.001 2c-30.667 0 -57.5 -8.83301 -80.5 -26.5
s-41.167 -43.167 -54.5 -76.5v-343h-74z" />
    <glyph glyph-name="s" unicode="s" horiz-adv-x="446" 
d="M223 -10c-41.333 0 -80.1689 6.83301 -116.502 20.5s-67.833 32.834 -94.5 57.501l45 48c23.333 -21.333 49 -37.833 77 -49.5s56.667 -17.5 86 -17.5c40 0 72.667 8.33301 98 25s38 38.334 38 65.001c0 22 -7.5 39.167 -22.5 51.5s-38.5 20.833 -70.5 25.5l-87 12
c-50 7.33301 -87.167 22.333 -111.5 45s-36.5 53.334 -36.5 92.001c0 28 8 53 24 75s38.167 39.333 66.5 52s60.833 19 97.5 19s71 -5.33301 103 -16s63.333 -27.334 94 -50.001l-39 -50c-28 19.333 -55.167 33.5 -81.5 42.5s-53.166 13.5 -80.499 13.5
c-34.667 0 -62.667 -7.66699 -84 -23s-32 -35.333 -32 -60c0 -22.667 7.33301 -39.834 22 -51.501s38.334 -19.834 71.001 -24.501l87 -12c50 -6.66699 87.5 -21.334 112.5 -44.001s37.5 -53.667 37.5 -93c0 -28.667 -9 -54.667 -27 -78s-42.167 -41.666 -72.5 -54.999
s-64.833 -20 -103.5 -20z" />
    <glyph glyph-name="t" unicode="t" horiz-adv-x="365" 
d="M260 -10c-43.333 0 -76.665 10.334 -99.998 31.001s-35 50.667 -35 90v327h-108v63h108v127l73 19v-146h151v-63h-151v-308c0 -26.667 6 -45.834 18 -57.501s31.667 -17.5 59 -17.5c14 0 26.5 1 37.5 3s22.833 5.33301 35.5 10v-65
c-12.667 -4.66699 -26.834 -8 -42.501 -10s-30.834 -3 -45.501 -3z" />
    <glyph glyph-name="u" unicode="u" horiz-adv-x="549" 
d="M255 -10c-38 0 -71.6699 8.16699 -101.003 24.5s-52.166 39 -68.499 68s-24.5 62.833 -24.5 101.5v317h73v-302c0 -44.667 12.667 -79.834 38 -105.501s59.333 -38.5 102 -38.5c30 0 56.833 6.83301 80.5 20.5s42.834 32.834 57.501 57.501v368h74v-501h-74v58
c-39.333 -45.333 -91.666 -68 -156.999 -68z" />
    <glyph glyph-name="v" unicode="v" horiz-adv-x="513" 
d="M222 0l-217 501h82l171 -405l171 405h79l-216 -501h-70z" />
    <glyph glyph-name="w" unicode="w" horiz-adv-x="703" 
d="M155 0l-141 501h73l108 -400l125 400h66l124 -400l109 400h70l-142 -501h-71l-124 401l-125 -401h-72z" />
    <glyph glyph-name="x" unicode="x" horiz-adv-x="491" 
d="M5 0l197 258l-187 243h88l142 -188l142 188h85l-185 -242l198 -259h-88l-153 204l-155 -204h-84z" />
    <glyph glyph-name="y" unicode="y" horiz-adv-x="510" 
d="M84 -214c-9.33301 0 -18.168 0.5 -26.501 1.5s-15.166 2.16699 -20.499 3.5v67c11.333 -2.66699 25.333 -4 42 -4c44 0 77.333 26 100 78l30 69l-204 500h82l162 -411l175 411h80l-250 -579c-14 -32 -29 -58 -45 -78s-34.167 -34.667 -54.5 -44s-43.833 -14 -70.5 -14z
" />
    <glyph glyph-name="z" unicode="z" horiz-adv-x="463" 
d="M31 0v58l302 377h-299v66h389v-57l-303 -378h306v-66h-395z" />
    <glyph glyph-name="braceleft" unicode="{" horiz-adv-x="382" 
d="M262 -214c-38.667 0 -70.001 8.83008 -94.001 26.4971s-38.833 41.5 -44.5 71.5s-0.833984 63.333 14.499 100l42 101c15.333 37.333 16.166 68.833 2.49902 94.5s-38.834 38.5 -75.501 38.5h-79v61h79c36.667 0 61.834 13.167 75.501 39.5s12.834 57.833 -2.49902 94.5
l-42 99c-15.333 37.333 -20.166 71 -14.499 101s20.5 53.833 44.5 71.5s55.333 26.5 94 26.5c13.333 0 26.333 -1.16699 39 -3.5s26.334 -6.16602 41.001 -11.499l-15 -56c-11.333 4 -21.833 6.83301 -31.5 8.5s-19.834 2.5 -30.501 2.5
c-32.667 0 -54.834 -11.333 -66.501 -34s-10.5 -51.667 3.5 -87l48 -121c14.667 -36.667 14.334 -70 -0.999023 -100s-41.333 -50 -78 -60c37.333 -10.667 63.333 -31.167 78 -61.5s15 -63.166 1 -98.499l-48 -122c-14 -34.667 -15.167 -63.5 -3.5 -86.5
s33.834 -34.5 66.501 -34.5c10.667 0 20.834 0.833008 30.501 2.5s20.167 4.5 31.5 8.5l15 -56c-14.667 -5.33301 -28.334 -9.16602 -41.001 -11.499s-25.667 -3.5 -39 -3.5z" />
    <glyph glyph-name="bar" unicode="|" horiz-adv-x="274" 
d="M103 -204v904h68v-904h-68z" />
    <glyph glyph-name="braceright" unicode="}" horiz-adv-x="382" 
d="M120 711c38.667 0 70.001 -8.83008 94.001 -26.4971s38.833 -41.5 44.5 -71.5s0.833984 -63.333 -14.499 -100l-42 -101c-15.333 -37.333 -16.166 -68.833 -2.49902 -94.5s38.834 -38.5 75.501 -38.5h79v-61h-79c-36.667 0 -61.834 -13.167 -75.501 -39.5
s-12.834 -57.833 2.49902 -94.5l42 -99c15.333 -37.333 20.166 -71 14.499 -101s-20.5 -53.833 -44.5 -71.5s-55.333 -26.5 -94 -26.5c-13.333 0 -26.333 1.16699 -39 3.5s-26.334 6.16602 -41.001 11.499l15 56c11.333 -4 21.833 -6.83301 31.5 -8.5
s19.834 -2.5 30.501 -2.5c32.667 0 54.834 11.333 66.501 34s10.5 51.667 -3.5 87l-48 121c-14.667 36.667 -14.334 70 0.999023 100s41.333 50 78 60c-37.333 10.667 -63.333 31.167 -78 61.5s-15 63.166 -1 98.499l48 122c14 34.667 15.167 63.5 3.5 86.5
s-33.834 34.5 -66.501 34.5c-10.667 0 -20.834 -0.833008 -30.501 -2.5s-20.167 -4.5 -31.5 -8.5l-15 56c14.667 5.33301 28.334 9.16602 41.001 11.499s25.667 3.5 39 3.5z" />
    <glyph glyph-name="asciitilde" unicode="~" horiz-adv-x="578" 
d="M97 301l-57.001 7c6 46.667 20 82.667 42 108s50.333 38 85 38c13.333 0 27.5 -2.16699 42.5 -6.5s31.833 -11.833 50.5 -22.5l80 -40c16 -8 29 -13.667 39 -17s19.333 -5 28 -5c41.333 0 66.333 30.333 75 91l56 -7c-5.33301 -46.667 -19.166 -82.667 -41.499 -108
s-50.833 -38 -85.5 -38c-12.667 0 -26.5 2.16699 -41.5 6.5s-32.167 11.5 -51.5 21.5l-80 40c-17.333 9.33301 -30.666 15.5 -39.999 18.5s-18.333 4.5 -27 4.5c-40.667 0 -65.334 -30.333 -74.001 -91z" />
    <glyph glyph-name="uni00A0" unicode="&#xa0;" horiz-adv-x="215" 
 />
    <glyph glyph-name="exclamdown" unicode="&#xa1;" horiz-adv-x="198" 
d="M129 303l9 -511h-77l9 511h59zM99 503c14 0 26 -5 36 -15s15 -22 15 -36s-5 -26 -15 -36s-22 -15 -36 -15s-26 5 -36 15s-15 22 -15 36s5 26 15 36s22 15 36 15z" />
    <glyph glyph-name="cent" unicode="&#xa2;" horiz-adv-x="515" 
d="M263 -118v110.999c-42 5.33301 -79.833 19.833 -113.5 43.5s-60.334 54.167 -80.001 91.5s-29.5 78.333 -29.5 123s9.83301 85.5 29.5 122.5s46.334 67.5 80.001 91.5s71.5 38.667 113.5 44v100h51v-99c33.333 -2 65.333 -9.66699 96 -23s57.667 -31.666 81 -54.999
l-47 -54c-18 18.667 -38.167 33.5 -60.5 44.5s-45.5 17.5 -69.5 19.5v-383c23.333 2 46 8.16699 68 18.5s42.333 24.833 61 43.5l46 -50c-24 -22.667 -51 -41 -81 -55s-61.333 -22 -94 -24v-110h-51zM113 250.999c0 -32 6.5 -61.5 19.5 -88.5s30.833 -49.333 53.5 -67
s48.334 -29.167 77.001 -34.5v379c-28.667 -5.33301 -54.334 -17 -77.001 -35s-40.5 -40.167 -53.5 -66.5s-19.5 -55.5 -19.5 -87.5z" />
    <glyph glyph-name="sterling" unicode="&#xa3;" horiz-adv-x="615" 
d="M457 -20c-8.66699 0 -17.8271 0.49707 -27.4941 1.49707s-19.5 2.5 -29.5 4.5l-199 41c-6.66699 1.33301 -13.334 2.33301 -20.001 3s-13 1 -19 1c-23.333 0 -43 -5.5 -59 -16.5s-29.667 -28.167 -41 -51.5l-54 36c16.667 30 36.167 52.833 58.5 68.5
s48.166 24.5 77.499 26.5c17.333 13.333 26 34.333 26 63c0 2 -0.166992 4.83301 -0.5 8.5s-1.16602 10.334 -2.49902 20.001s-3.83301 24.5 -7.5 44.5l-14.5 82h-105v57h95c-5.33301 30 -9.33301 53.333 -12 70s-4.33398 29.334 -5.00098 38.001s-1 16 -1 22
c0 43.333 8.66699 80.833 26 112.5s42 56.167 74 73.5s70.333 26 115 26c59.333 0 108.166 -14.667 146.499 -44s64.166 -72.666 77.499 -129.999l-64 -19c-10 42 -28.667 74.167 -56 96.5s-62 33.5 -104 33.5c-46.667 0 -82.334 -12.833 -107.001 -38.5
s-37 -61.5 -37 -107.5c0 -5.33301 0.333008 -11.833 1 -19.5s2.5 -20.167 5.5 -37.5l12.5 -76h210v-57h-200l12.5 -72l7 -41.5c1.66699 -9.66699 2.66699 -16.667 3 -21s0.5 -7.83301 0.5 -10.5c0 -32.667 -8.66699 -58.667 -26 -78l199 -40
c7.33301 -1.33301 14.5 -2.5 21.5 -3.5s13.833 -1.5 20.5 -1.5c41.333 0 72.666 20 93.999 60l55 -35c-34.667 -59.333 -83.667 -89 -147 -89z" />
    <glyph glyph-name="uni00A4" unicode="&#xa4;" horiz-adv-x="682" 
d="M85 64l-39 40.002l93 94c-16.667 22 -29.834 47 -39.501 75s-14.5 57.333 -14.5 88c0 31.333 4.83301 60.666 14.5 87.999s23.167 52 40.5 74l-94 95l40 41l94 -95c22 18 46.667 32 74 42s56.333 15 87 15s59.667 -5 87 -15s52 -24 74 -42l94 95l39 -40l-95 -95
c17.333 -22 31 -46.833 41 -74.5s15 -57.167 15 -88.5c0 -30.667 -4.66699 -59.834 -14 -87.501s-22.666 -52.5 -39.999 -74.5l94 -95l-40 -41l-94 94c-22 -18 -46.667 -32 -74 -42s-56.333 -15 -87 -15s-60 5.16699 -88 15.5s-53 24.5 -75 42.5zM341 167.002
c34 0 64.833 8.66699 92.5 26s49.667 40.666 66 69.999s24.5 62 24.5 98c0 36.667 -8.16699 69.5 -24.5 98.5s-38.333 52.167 -66 69.5s-58.5 26 -92.5 26s-64.833 -8.66699 -92.5 -26s-49.667 -40.5 -66 -69.5s-24.5 -61.833 -24.5 -98.5c0 -36 8.16699 -68.667 24.5 -98
s38.333 -52.666 66 -69.999s58.5 -26 92.5 -26z" />
    <glyph glyph-name="yen" unicode="&#xa5;" horiz-adv-x="641" 
d="M282 0v134h-187v54h187v75h-187v54h166l-253 383h90l225 -347l223 347h87l-251 -383h164v-54h-187v-75h187v-54h-187v-134h-77z" />
    <glyph glyph-name="uni00A6" unicode="&#xa6;" horiz-adv-x="274" 
d="M103 288v412h68v-412h-68zM103 -204v412h68v-412h-68z" />
    <glyph glyph-name="section" unicode="&#xa7;" horiz-adv-x="566" 
d="M280 -50c-28.667 0 -58.333 4.16895 -89 12.502s-60.667 20.166 -90 35.499l29 53c58 -30.667 108 -46 150 -46c32.667 0 58.167 7 76.5 21s27.5 33.333 27.5 58c0 19.333 -6 35.5 -18 48.5s-31.333 23.833 -58 32.5l-110 36c-50.667 16.667 -86.5 35.834 -107.5 57.501
s-31.5 50.5 -31.5 86.5c0 31.333 9.33301 58.166 28 80.499s44 37.833 76 46.5c-33.333 25.333 -50 59 -50 101c0 41.333 15.833 74.5 47.5 99.5s73.5 37.5 125.5 37.5c28.667 0 58.334 -4.33301 89.001 -13s60.667 -20.667 90 -36l-30 -53
c-55.333 31.333 -105.333 47 -150 47c-32.667 0 -58.167 -7 -76.5 -21s-27.5 -33.333 -27.5 -58c0 -19.333 6.16699 -35.5 18.5 -48.5s31.833 -23.833 58.5 -32.5l109 -36c51.333 -16.667 87.5 -35.834 108.5 -57.501s31.5 -50.834 31.5 -87.501
c0 -30.667 -9.33301 -57.167 -28 -79.5s-44.334 -38.166 -77.001 -47.499c33.333 -25.333 50 -59 50 -101c0 -40.667 -15.833 -73.5 -47.5 -98.5s-73.167 -37.5 -124.5 -37.5zM340.001 219.002c31.333 3.33301 56.167 12.9971 74.5 28.9971s27.5 36.333 27.5 61
c0 21.333 -7.16699 39 -21.5 53s-37.5 26.333 -69.5 37l-115 37c-2 0.666992 -3.83301 1.33398 -5.5 2.00098s-3.16699 1.33398 -4.5 2.00098c-32 -3.33301 -57.167 -13 -75.5 -29s-27.5 -36.333 -27.5 -61c0 -20.667 7.16699 -38 21.5 -52s37.5 -26.667 69.5 -38l115 -37
c2 -0.666992 3.83301 -1.16699 5.5 -1.5s3.5 -1.16602 5.5 -2.49902z" />
    <glyph glyph-name="dieresis" unicode="&#xa8;" 
d="M213 611c-14 0 -25.833 4.66699 -35.5 14s-14.5 20.666 -14.5 33.999s4.83301 24.666 14.5 33.999s21.5 14 35.5 14s25.833 -4.66699 35.5 -14s14.5 -20.666 14.5 -33.999s-4.83301 -24.666 -14.5 -33.999s-21.5 -14 -35.5 -14zM387 611c-14 0 -25.833 4.66699 -35.5 14
s-14.5 20.666 -14.5 33.999s4.83301 24.666 14.5 33.999s21.5 14 35.5 14s25.833 -4.66699 35.5 -14s14.5 -20.666 14.5 -33.999s-4.83301 -24.666 -14.5 -33.999s-21.5 -14 -35.5 -14z" />
    <glyph glyph-name="copyright" unicode="&#xa9;" horiz-adv-x="804" 
d="M413 166c-34 0 -64.665 8.16602 -91.998 24.499s-49 38.5 -65 66.5s-24 59 -24 93c0 34.667 8 65.834 24 93.501s37.667 49.834 65 66.501s58 25 92 25c26.667 0 52.167 -5 76.5 -15s45.5 -24.333 63.5 -43l-36 -40c-14 15.333 -30 26.833 -48 34.5
s-36.333 11.5 -55 11.5c-23.333 0 -44.5 -5.83301 -63.5 -17.5s-34 -27.5 -45 -47.5s-16.5 -42.667 -16.5 -68c0 -24.667 5.5 -47 16.5 -67s26 -35.833 45 -47.5s40.167 -17.5 63.5 -17.5c19.333 0 37.5 3.66699 54.5 11s32.833 18.333 47.5 33l36 -39
c-18.667 -18.667 -39.834 -32.834 -63.501 -42.501s-48.834 -14.5 -75.501 -14.5zM402.002 -11.001c-50.667 0 -97.667 9.16602 -141 27.499s-81.333 44 -114 77s-58 71.333 -76 115s-27 90.834 -27 141.501s9 97.834 27 141.501s43.333 82 76 115s70.667 58.667 114 77
s90.333 27.5 141 27.5s97.667 -9.16699 141 -27.5s81.333 -43.833 114 -76.5s58 -70.834 76 -114.501s27 -91.167 27 -142.5c0 -50.667 -9 -98 -27 -142s-43.333 -82.333 -76 -115s-70.667 -58.167 -114 -76.5s-90.333 -27.5 -141 -27.5zM402.002 31.998
c43.333 0 84 8.16699 122 24.5s71.167 39 99.5 68s50.5 62.833 66.5 101.5s24 80 24 124s-8 85.333 -24 124s-38.167 72.5 -66.5 101.5s-61.5 51.667 -99.5 68s-78.667 24.5 -122 24.5s-83.666 -8.16699 -120.999 -24.5s-70.166 -39 -98.499 -68s-50.5 -62.833 -66.5 -101.5
s-24 -80 -24 -124s8 -85.333 24 -124s38.167 -72.5 66.5 -101.5s61.166 -51.667 98.499 -68s77.666 -24.5 120.999 -24.5z" />
    <glyph glyph-name="ordfeminine" unicode="&#xaa;" horiz-adv-x="408" 
d="M173 319c-41.333 0 -75.001 10.5 -101.001 31.5s-39 48.5 -39 82.5c0 35.333 13.833 63.333 41.5 84s64.834 31 111.501 31c19.333 0 38 -2 56 -6s35 -9.66699 51 -17v46c0 58 -32.333 87 -97 87c-18 0 -36.333 -2.5 -55 -7.5s-39.667 -13.167 -63 -24.5l-23 47
c27.333 13.333 53 23 77 29s47.667 9 71 9c48.667 0 86 -11.5 112 -34.5s39 -55.833 39 -98.5v-252h-61v35c-34 -28 -74 -42 -120 -42zM184.999 367c21.333 0 41 3.33203 59 9.99902s34.333 16.334 49 29.001v71c-14.667 9.33301 -30.5 16.166 -47.5 20.499
s-36.167 6.5 -57.5 6.5c-28.667 0 -51.667 -6.16699 -69 -18.5s-26 -29.166 -26 -50.499c0 -20.667 8.5 -37.167 25.5 -49.5s39.167 -18.5 66.5 -18.5z" />
    <glyph glyph-name="guillemotleft" unicode="&#xab;" horiz-adv-x="598" 
d="M265 0l-234 251l234 250h79l-228 -248l231 -253h-82zM473 0l-234 251l234 250h79l-228 -248l231 -253h-82z" />
    <glyph glyph-name="uni00AC" unicode="&#xac;" horiz-adv-x="583" 
d="M462 0v254h-395v60h457v-314h-62z" />
    <glyph glyph-name="uni00AD" unicode="&#xad;" horiz-adv-x="455" 
d="M49 248v66h349v-66h-349z" />
    <glyph glyph-name="registered" unicode="&#xae;" horiz-adv-x="489" 
d="M244 311c-37.333 0 -71 8.83301 -101 26.5s-53.833 41.834 -71.5 72.501s-26.5 64.667 -26.5 102c0 38 8.83301 72.167 26.5 102.5s41.5 54.333 71.5 72s63.667 26.5 101 26.5s71.166 -8.83301 101.499 -26.5s54.333 -41.667 72 -72s26.5 -64.5 26.5 -102.5
c0 -37.333 -8.83301 -71.333 -26.5 -102s-41.667 -54.834 -72 -72.501s-64.166 -26.5 -101.499 -26.5zM244 345c32 0 60.167 7.16699 84.5 21.5s43.5 34.166 57.5 59.499s21 54 21 86s-7 60.667 -21 86s-33.167 45.166 -57.5 59.499s-52.5 21.5 -84.5 21.5
c-30.667 0 -58.334 -7.16699 -83.001 -21.5s-44 -34.166 -58 -59.499s-21 -53.666 -21 -84.999c0 -32 7 -60.667 21 -86s33.333 -45.333 58 -60s52.334 -22 83.001 -22zM178 419v187.998h74c20 0 35.667 -5 47 -15s17 -24 17 -42c0 -11.333 -3.16699 -21.666 -9.5 -30.999
s-14.833 -16.666 -25.5 -21.999l46 -78h-37l-42 71h-36v-71h-34zM248 578.998h-36v-63h35c23.333 0 35 10.667 35 32c0 10 -2.83301 17.667 -8.5 23s-14.167 8 -25.5 8z" />
    <glyph glyph-name="macron" unicode="&#xaf;" 
d="M158 621v53h284v-53h-284z" />
    <glyph glyph-name="degree" unicode="&#xb0;" horiz-adv-x="404" 
d="M202 423c-26 0 -49.833 6.5 -71.5 19.5s-39 30.5 -52 52.5s-19.5 46 -19.5 72c0 26.667 6.5 50.834 19.5 72.501s30.333 39 52 52s45.5 19.5 71.5 19.5c26.667 0 50.667 -6.5 72 -19.5s38.5 -30.333 51.5 -52s19.5 -45.834 19.5 -72.501c0 -26 -6.5 -50 -19.5 -72
s-30.167 -39.5 -51.5 -52.5s-45.333 -19.5 -72 -19.5zM202 472c25.333 0 47.166 9.33301 65.499 28s27.5 41 27.5 67s-9.16699 48.333 -27.5 67s-40.166 28 -65.499 28s-47.166 -9.33301 -65.499 -28s-27.5 -41 -27.5 -67s9.16699 -48.333 27.5 -67s40.166 -28 65.499 -28z
" />
    <glyph glyph-name="plusminus" unicode="&#xb1;" 
d="M102 -1v60h396v-60h-396zM269 173v176h-167v60h167v176h62v-176h167v-60h-167v-176h-62z" />
    <glyph glyph-name="twosuperior" unicode="&#xb2;" horiz-adv-x="291" 
d="M26 350v38.001l136 125c19.333 18.667 32.833 34.167 40.5 46.5s11.5 25.166 11.5 38.499c0 18 -6.66699 32.833 -20 44.5s-30.666 17.5 -51.999 17.5c-16.667 0 -32.334 -3.33301 -47.001 -10s-31 -17.667 -49 -33l-29 35c19.333 17.333 39.5 30.5 60.5 39.5
s42.833 13.5 65.5 13.5c35.333 0 64.5 -9.66699 87.5 -29s34.5 -44 34.5 -74c0 -20.667 -5 -39.5 -15 -56.5s-28.333 -37.833 -55 -62.5l-97 -89h172v-44h-244z" />
    <glyph glyph-name="threesuperior" unicode="&#xb3;" horiz-adv-x="313" 
d="M151 345c-26 0 -50.502 4.49609 -73.502 13.4961s-42.833 21.833 -59.5 38.5l35 33c14.667 -14.667 29.5 -25 44.5 -31s32.833 -9 53.5 -9c24.667 0 44.334 5.5 59.001 16.5s22 25.5 22 43.5c0 16 -7.16699 28.833 -21.5 38.5s-33.166 14.5 -56.499 14.5h-31v42h27
c20 0 36.667 5.83301 50 17.5s20 25.834 20 42.501c0 16 -6.66699 29.167 -20 39.5s-30.333 15.5 -51 15.5c-18.667 0 -34.834 -3.16699 -48.501 -9.5s-28.167 -17.166 -43.5 -32.499l-35 33c17.333 17.333 37 30.833 59 40.5s45.333 14.5 70 14.5
c35.333 0 64.5 -9.16699 87.5 -27.5s34.167 -41.5 33.5 -69.5c0.666992 -17.333 -4.16602 -33.166 -14.499 -47.499s-24.5 -25.5 -42.5 -33.5c21.333 -6.66699 38.333 -17.167 51 -31.5s19 -31.166 19 -50.499c0 -29.333 -12.5 -53.5 -37.5 -72.5s-57.167 -28.5 -96.5 -28.5
z" />
    <glyph glyph-name="acute" unicode="&#xb4;" 
d="M236 600l94 116h95l-124 -116h-65z" />
    <glyph glyph-name="uni00B5" unicode="&#xb5;" horiz-adv-x="551" 
d="M63 -204l-0.00195312 705h73v-302c0 -44.667 12.667 -79.834 38 -105.501s59.333 -38.5 102 -38.5c30 0 56.833 6.83301 80.5 20.5s42.834 32.834 57.501 57.501v368h74v-501h-74v58c-19.333 -22.667 -42.166 -39.667 -68.499 -51s-55.833 -17 -88.5 -17
c-23.333 0 -45.333 3.16699 -66 9.5s-39 15.5 -55 27.5v-231h-73z" />
    <glyph glyph-name="paragraph" unicode="&#xb6;" horiz-adv-x="651" 
d="M318 0l-0.000976562 289h-59c-43.333 0 -81.666 8.66699 -114.999 26s-59.333 41.5 -78 72.5s-28 66.5 -28 106.5c0 41.333 9.33301 77.333 28 108s44.5 54.667 77.5 72s71.167 26 114.5 26h316v-700h-69v289h-119v-289h-68zM385.999 352h119v285h-119v-285zM258.999 352
h59v285h-59c-44.667 0 -80.834 -13 -108.501 -39s-41.5 -60.333 -41.5 -103c0 -43.333 13.833 -78 41.5 -104s63.834 -39 108.501 -39z" />
    <glyph glyph-name="periodcentered" unicode="&#xb7;" horiz-adv-x="250" 
d="M125 231c-14 0 -26 5 -36 15s-15 22 -15 36s5 26 15 36s22 15 36 15s26 -5 36 -15s15 -22 15 -36s-5 -26 -15 -36s-22 -15 -36 -15z" />
    <glyph glyph-name="cedilla" unicode="&#xb8;" 
d="M280 -228c-46 0 -83.668 13.667 -113.001 41l30 32c25.333 -21.333 53 -32 83 -32c20 0 35.667 4.5 47 13.5s17 20.833 17 35.5s-6.16699 26.167 -18.5 34.5s-29.166 12.5 -50.499 12.5h-29l26 91h43l-15 -55c29.333 -1.33301 52.5 -9.33301 69.5 -24s25.5 -34 25.5 -58
c0 -26.667 -10.833 -48.5 -32.5 -65.5s-49.167 -25.5 -82.5 -25.5z" />
    <glyph glyph-name="onesuperior" unicode="&#xb9;" horiz-adv-x="165" 
d="M83 350v296l-63 -26v45l82 35h33v-350h-52z" />
    <glyph glyph-name="ordmasculine" unicode="&#xba;" horiz-adv-x="464" 
d="M232 317c-36 0 -68.667 8.83301 -98 26.5s-52.666 41.334 -69.999 71.001s-26 62.834 -26 99.501s8.66699 69.834 26 99.501s40.666 53.334 69.999 71.001s62 26.5 98 26.5s68.667 -8.83301 98 -26.5s52.666 -41.334 69.999 -71.001s26 -62.834 26 -99.501
s-8.66699 -69.834 -26 -99.501s-40.666 -53.334 -69.999 -71.001s-62 -26.5 -98 -26.5zM232 372c24.667 0 47 6.33301 67 19s35.833 29.667 47.5 51s17.5 45.333 17.5 72s-5.83301 50.667 -17.5 72s-27.5 38.333 -47.5 51s-42.333 19 -67 19s-47 -6.33301 -67 -19
s-35.833 -29.667 -47.5 -51s-17.5 -45.333 -17.5 -72s5.83301 -50.667 17.5 -72s27.5 -38.333 47.5 -51s42.333 -19 67 -19z" />
    <glyph glyph-name="guillemotright" unicode="&#xbb;" horiz-adv-x="598" 
d="M333 501l234 -251l-234 -250h-79l228 248l-231 253h82zM124 501l234 -251l-234 -250h-79l228 248l-231 253h82z" />
    <glyph glyph-name="onequarter" unicode="&#xbc;" horiz-adv-x="603" 
d="M492 0v88h-198v42l192 220h58v-218h43v-44h-43v-88h-52zM355 132h137v157zM83 350v296l-63 -26v45l82 35h33v-350h-52zM38 1l393 700h62l-394 -700h-61z" />
    <glyph glyph-name="onehalf" unicode="&#xbd;" horiz-adv-x="637" 
d="M83 350v296l-63 -26v45l82 35h33v-350h-52zM38 0l393 700h62l-394 -700h-61zM372 0v38.001l136 125c19.333 18.667 32.833 34.167 40.5 46.5s11.5 25.166 11.5 38.499c0 18 -6.66699 32.833 -20 44.5s-30.666 17.5 -51.999 17.5c-16.667 0 -32.334 -3.33301 -47.001 -10
s-31 -17.667 -49 -33l-29 35c19.333 17.333 39.5 30.5 60.5 39.5s42.833 13.5 65.5 13.5c35.333 0 64.5 -9.66699 87.5 -29s34.5 -44 34.5 -74c0 -20.667 -5 -39.5 -15 -56.5s-28.333 -37.833 -55 -62.5l-97 -89h172v-44h-244z" />
    <glyph glyph-name="threequarters" unicode="&#xbe;" horiz-adv-x="697" 
d="M586 0v88h-198v42l192 220h58v-218h43v-44h-43v-88h-52zM449 132h137v157zM151 345c-26 0 -50.502 4.49609 -73.502 13.4961s-42.833 21.833 -59.5 38.5l35 33c14.667 -14.667 29.5 -25 44.5 -31s32.833 -9 53.5 -9c24.667 0 44.334 5.5 59.001 16.5s22 25.5 22 43.5
c0 16 -7.16699 28.833 -21.5 38.5s-33.166 14.5 -56.499 14.5h-31v42h27c20 0 36.667 5.83301 50 17.5s20 25.834 20 42.501c0 16 -6.66699 29.167 -20 39.5s-30.333 15.5 -51 15.5c-18.667 0 -34.834 -3.16699 -48.501 -9.5s-28.167 -17.166 -43.5 -32.499l-35 33
c17.333 17.333 37 30.833 59 40.5s45.333 14.5 70 14.5c35.333 0 64.5 -9.16699 87.5 -27.5s34.167 -41.5 33.5 -69.5c0.666992 -17.333 -4.16602 -33.166 -14.499 -47.499s-24.5 -25.5 -42.5 -33.5c21.333 -6.66699 38.333 -17.167 51 -31.5s19 -31.166 19 -50.499
c0 -29.333 -12.5 -53.5 -37.5 -72.5s-57.167 -28.5 -96.5 -28.5zM131.998 -0.00390625l393 700h62l-394 -700h-61z" />
    <glyph glyph-name="questiondown" unicode="&#xbf;" horiz-adv-x="506" 
d="M318 298c1.33301 -30.667 -0.333008 -57.167 -5 -79.5s-13.334 -42.333 -26.001 -60s-29.667 -34.167 -51 -49.5l-44 -31c-29.333 -21.333 -49.833 -40.666 -61.5 -57.999s-17.5 -37.333 -17.5 -60c0 -20.667 6.5 -39 19.5 -55s30.333 -28.833 52 -38.5
s46.167 -14.5 73.5 -14.5c32.667 0 63.5 7.66699 92.5 23s54.833 37.666 77.5 66.999l58 -38c-19.333 -25.333 -41.166 -46.833 -65.499 -64.5s-50.5 -31 -78.5 -40s-57.333 -13.5 -88 -13.5c-40.667 0 -77.167 7.5 -109.5 22.5s-57.833 35.5 -76.5 61.5s-28 55.667 -28 89
c0 22.667 3.5 43.167 10.5 61.5s19 36.166 36 53.499s40.5 36.333 70.5 57l34 24c24.667 16.667 42 36.334 52 59.001s13.667 50.667 11 84h64zM286.001 503c14 0 26 -5 36 -15s15 -22 15 -36s-5 -26 -15 -36s-22 -15 -36 -15s-26 5 -36 15s-15 22 -15 36s5 26 15 36
s22 15 36 15z" />
    <glyph glyph-name="Agrave" unicode="&#xc0;" horiz-adv-x="679" 
d="M4 0l290 700h93l288 -700h-84l-88 220h-330l-89 -220h-80zM200 286h276l-138 343zM330 799l-123 116h96l92 -116h-65z" />
    <glyph glyph-name="Aacute" unicode="&#xc1;" horiz-adv-x="679" 
d="M4 0l290 700h93l288 -700h-84l-88 220h-330l-89 -220h-80zM200 286h276l-138 343zM276 799l94 116h95l-124 -116h-65z" />
    <glyph glyph-name="Acircumflex" unicode="&#xc2;" horiz-adv-x="679" 
d="M4 0l290 700h93l288 -700h-84l-88 220h-330l-89 -220h-80zM200 286h276l-138 343zM423 795l-84 80l-83 -80h-60l104 121h80l104 -121h-61z" />
    <glyph glyph-name="Atilde" unicode="&#xc3;" horiz-adv-x="679" 
d="M4 0l290 700h93l288 -700h-84l-88 220h-330l-89 -220h-80zM200 286h276l-138 343zM224 794l-52 10c14.667 66.667 46 100 94 100c18 0 35.5 -4.5 52.5 -13.5s33.167 -18.167 48.5 -27.5s30 -14 44 -14c11.333 0 20.5 4.33301 27.5 13s12.833 23.334 17.5 44.001l51 -10
c-6.66699 -33.333 -18 -58.333 -34 -75s-36 -25 -60 -25c-17.333 0 -34.5 4.66699 -51.5 14l-49 27.5c-15.667 9 -30.5 13.5 -44.5 13.5c-12 0 -21.333 -4.33301 -28 -13s-12 -23.334 -16 -44.001z" />
    <glyph glyph-name="Adieresis" unicode="&#xc4;" horiz-adv-x="679" 
d="M4 0l290 700h93l288 -700h-84l-88 220h-330l-89 -220h-80zM200 286h276l-138 343zM253 810c-14 0 -25.833 4.66699 -35.5 14s-14.5 20.666 -14.5 33.999s4.83301 24.666 14.5 33.999s21.5 14 35.5 14s25.833 -4.66699 35.5 -14s14.5 -20.666 14.5 -33.999
s-4.83301 -24.666 -14.5 -33.999s-21.5 -14 -35.5 -14zM427 810c-14 0 -25.833 4.66699 -35.5 14s-14.5 20.666 -14.5 33.999s4.83301 24.666 14.5 33.999s21.5 14 35.5 14s25.833 -4.66699 35.5 -14s14.5 -20.666 14.5 -33.999s-4.83301 -24.666 -14.5 -33.999
s-21.5 -14 -35.5 -14z" />
    <glyph glyph-name="Aring" unicode="&#xc5;" horiz-adv-x="679" 
d="M4 0l290 700h93l288 -700h-84l-88 220h-330l-89 -220h-80zM200 286h276l-138 343zM340 782c-20.667 0 -39.5 5 -56.5 15s-30.5 23.5 -40.5 40.5s-15 35.5 -15 55.5c0 20.667 5 39.334 15 56.001s23.5 30 40.5 40s35.833 15 56.5 15s39.5 -5 56.5 -15
s30.5 -23.333 40.5 -40s15 -35.334 15 -56.001c0 -20 -5 -38.5 -15 -55.5s-23.5 -30.5 -40.5 -40.5s-35.833 -15 -56.5 -15zM340 823c19.333 0 35.833 6.83301 49.5 20.5s20.5 30.167 20.5 49.5s-6.83301 35.833 -20.5 49.5s-30.167 20.5 -49.5 20.5
s-35.833 -6.83301 -49.5 -20.5s-20.5 -30.167 -20.5 -49.5s6.83301 -35.833 20.5 -49.5s30.167 -20.5 49.5 -20.5z" />
    <glyph glyph-name="AE" unicode="&#xc6;" horiz-adv-x="953" 
d="M4 0l291 700h624v-68h-501l99 -245h261v-67h-234l101 -252h274v-68h-328l-88 220h-330l-89 -220h-80zM200 286h276l-137 342z" />
    <glyph glyph-name="Ccedilla" unicode="&#xc7;" horiz-adv-x="722" 
d="M393 -228c-46 0 -83.6641 13.6699 -112.997 41.0029l30 32c25.333 -21.333 53 -32 83 -32c20 0 35.667 4.5 47 13.5s17 20.833 17 35.5s-6.16699 26.167 -18.5 34.5s-29.166 12.5 -50.499 12.5h-29l23 81c-48 3.33301 -92.5 14.666 -133.5 33.999
s-76.833 45.166 -107.5 77.499s-54.5 69.666 -71.5 111.999s-25.5 87.833 -25.5 136.5c0 50.667 9.16699 97.834 27.5 141.501s44.166 82 77.499 115s72 58.667 116 77s91.333 27.5 142 27.5c36.667 0 71.834 -4.5 105.501 -13.5s65 -22 94 -39s54.833 -37.833 77.5 -62.5
l-51 -54c-27.333 31.333 -61 55.5 -101 72.5s-81.667 25.5 -125 25.5c-40.667 0 -78.334 -7.33301 -113.001 -22s-64.834 -35.167 -90.501 -61.5s-45.667 -57 -60 -92s-21.5 -73.167 -21.5 -114.5c0 -40.667 7.16699 -78.667 21.5 -114s34.5 -66.166 60.5 -92.499
s56.5 -46.833 91.5 -61.5s72.833 -22 113.5 -22c43.333 0 84.666 8.5 123.999 25.5s72.333 40.5 99 70.5l50 -52c-32.667 -34.667 -71.334 -61.834 -116.001 -81.501s-91.667 -30.834 -141 -33.501l-12 -44c29.333 -1.33301 52.5 -9.33301 69.5 -24s25.5 -34 25.5 -58
c0 -26.667 -10.833 -48.5 -32.5 -65.5s-49.167 -25.5 -82.5 -25.5z" />
    <glyph glyph-name="Egrave" unicode="&#xc8;" horiz-adv-x="616" 
d="M77 0v700h501v-68h-424v-245h277v-67h-277v-252h428v-68h-505zM330 799l-123 116h96l92 -116h-65z" />
    <glyph glyph-name="Eacute" unicode="&#xc9;" horiz-adv-x="616" 
d="M77 0v700h501v-68h-424v-245h277v-67h-277v-252h428v-68h-505zM276 799l94 116h95l-124 -116h-65z" />
    <glyph glyph-name="Ecircumflex" unicode="&#xca;" horiz-adv-x="616" 
d="M77 0v700h501v-68h-424v-245h277v-67h-277v-252h428v-68h-505zM423 795l-84 80l-83 -80h-60l104 121h80l104 -121h-61z" />
    <glyph glyph-name="Edieresis" unicode="&#xcb;" horiz-adv-x="616" 
d="M77 0v700h501v-68h-424v-245h277v-67h-277v-252h428v-68h-505zM253 810c-14 0 -25.833 4.66699 -35.5 14s-14.5 20.666 -14.5 33.999s4.83301 24.666 14.5 33.999s21.5 14 35.5 14s25.833 -4.66699 35.5 -14s14.5 -20.666 14.5 -33.999s-4.83301 -24.666 -14.5 -33.999
s-21.5 -14 -35.5 -14zM427 810c-14 0 -25.833 4.66699 -35.5 14s-14.5 20.666 -14.5 33.999s4.83301 24.666 14.5 33.999s21.5 14 35.5 14s25.833 -4.66699 35.5 -14s14.5 -20.666 14.5 -33.999s-4.83301 -24.666 -14.5 -33.999s-21.5 -14 -35.5 -14z" />
    <glyph glyph-name="Igrave" unicode="&#xcc;" horiz-adv-x="231" 
d="M77 0v700h77v-700h-77zM106 799l-123 116h96l92 -116h-65z" />
    <glyph glyph-name="Iacute" unicode="&#xcd;" horiz-adv-x="231" 
d="M77 0v700h77v-700h-77zM52 799l94 116h95l-124 -116h-65z" />
    <glyph glyph-name="Icircumflex" unicode="&#xce;" horiz-adv-x="231" 
d="M77 0v700h77v-700h-77zM199 795l-84 80l-83 -80h-60l104 121h80l104 -121h-61z" />
    <glyph glyph-name="Idieresis" unicode="&#xcf;" horiz-adv-x="231" 
d="M77 0v700h77v-700h-77zM29 810c-14 0 -25.833 4.66699 -35.5 14s-14.5 20.666 -14.5 33.999s4.83301 24.666 14.5 33.999s21.5 14 35.5 14s25.833 -4.66699 35.5 -14s14.5 -20.666 14.5 -33.999s-4.83301 -24.666 -14.5 -33.999s-21.5 -14 -35.5 -14zM203 810
c-14 0 -25.833 4.66699 -35.5 14s-14.5 20.666 -14.5 33.999s4.83301 24.666 14.5 33.999s21.5 14 35.5 14s25.833 -4.66699 35.5 -14s14.5 -20.666 14.5 -33.999s-4.83301 -24.666 -14.5 -33.999s-21.5 -14 -35.5 -14z" />
    <glyph glyph-name="Eth" unicode="&#xd0;" horiz-adv-x="744" 
d="M100 0v317h-87v66h87v317h231c53.333 0 102.333 -8.66699 147 -26s83.5 -41.666 116.5 -72.999s58.667 -68.333 77 -111s27.5 -89.334 27.5 -140.001s-9 -97.334 -27 -140.001s-43.5 -79.667 -76.5 -111s-72 -55.666 -117 -72.999s-94.167 -26 -147.5 -26h-231zM177 70
h158c40.667 0 78.334 7 113.001 21s65 33.667 91 59s46.167 55 60.5 89s21.5 71 21.5 111s-7.16699 77 -21.5 111s-34.5 63.667 -60.5 89s-56.333 45 -91 59s-72.334 21 -113.001 21h-158v-247h189v-66h-189v-247z" />
    <glyph glyph-name="Ntilde" unicode="&#xd1;" horiz-adv-x="725" 
d="M77 0v700h77l421 -568v568h73v-700h-68l-430 583v-583h-73zM246 794l-52 10c14.667 66.667 46 100 94 100c18 0 35.5 -4.5 52.5 -13.5s33.167 -18.167 48.5 -27.5s30 -14 44 -14c11.333 0 20.5 4.33301 27.5 13s12.833 23.334 17.5 44.001l51 -10
c-6.66699 -33.333 -18 -58.333 -34 -75s-36 -25 -60 -25c-17.333 0 -34.5 4.66699 -51.5 14l-49 27.5c-15.667 9 -30.5 13.5 -44.5 13.5c-12 0 -21.333 -4.33301 -28 -13s-12 -23.334 -16 -44.001z" />
    <glyph glyph-name="Ograve" unicode="&#xd2;" horiz-adv-x="809" 
d="M405 -11c-50.667 0 -97.834 9.16699 -141.501 27.5s-82 44 -115 77s-58.667 71.333 -77 115s-27.5 90.834 -27.5 141.501s9.16699 97.834 27.5 141.501s44 82 77 115s71.333 58.667 115 77s90.834 27.5 141.501 27.5c50 0 96.833 -9.16699 140.5 -27.5s82 -44 115 -77
s58.667 -71.333 77 -115s27.5 -90.834 27.5 -141.501s-9.16699 -97.834 -27.5 -141.501s-44 -82 -77 -115s-71.333 -58.667 -115 -77s-90.5 -27.5 -140.5 -27.5zM405 60c40 0 77 7.33203 111 21.999s63.833 35.167 89.5 61.5s45.667 57.166 60 92.499s21.5 73.333 21.5 114
c0 41.333 -7.16699 79.5 -21.5 114.5s-34.333 65.667 -60 92s-55.5 46.833 -89.5 61.5s-71 22 -111 22s-77.167 -7.33301 -111.5 -22s-64.333 -35.167 -90 -61.5s-45.667 -57 -60 -92s-21.5 -72.833 -21.5 -113.5c0 -41.333 7.16699 -79.666 21.5 -114.999
s34.333 -66.166 60 -92.499s55.667 -46.833 90 -61.5s71.5 -22 111.5 -22zM395 798.999l-123 116h96l92 -116h-65z" />
    <glyph glyph-name="Oacute" unicode="&#xd3;" horiz-adv-x="809" 
d="M405 -11c-50.667 0 -97.834 9.16699 -141.501 27.5s-82 44 -115 77s-58.667 71.333 -77 115s-27.5 90.834 -27.5 141.501s9.16699 97.834 27.5 141.501s44 82 77 115s71.333 58.667 115 77s90.834 27.5 141.501 27.5c50 0 96.833 -9.16699 140.5 -27.5s82 -44 115 -77
s58.667 -71.333 77 -115s27.5 -90.834 27.5 -141.501s-9.16699 -97.834 -27.5 -141.501s-44 -82 -77 -115s-71.333 -58.667 -115 -77s-90.5 -27.5 -140.5 -27.5zM405 60c40 0 77 7.33203 111 21.999s63.833 35.167 89.5 61.5s45.667 57.166 60 92.499s21.5 73.333 21.5 114
c0 41.333 -7.16699 79.5 -21.5 114.5s-34.333 65.667 -60 92s-55.5 46.833 -89.5 61.5s-71 22 -111 22s-77.167 -7.33301 -111.5 -22s-64.333 -35.167 -90 -61.5s-45.667 -57 -60 -92s-21.5 -72.833 -21.5 -113.5c0 -41.333 7.16699 -79.666 21.5 -114.999
s34.333 -66.166 60 -92.499s55.667 -46.833 90 -61.5s71.5 -22 111.5 -22zM341 798.999l94 116h95l-124 -116h-65z" />
    <glyph glyph-name="Ocircumflex" unicode="&#xd4;" horiz-adv-x="809" 
d="M405 -11c-50.667 0 -97.834 9.16699 -141.501 27.5s-82 44 -115 77s-58.667 71.333 -77 115s-27.5 90.834 -27.5 141.501s9.16699 97.834 27.5 141.501s44 82 77 115s71.333 58.667 115 77s90.834 27.5 141.501 27.5c50 0 96.833 -9.16699 140.5 -27.5s82 -44 115 -77
s58.667 -71.333 77 -115s27.5 -90.834 27.5 -141.501s-9.16699 -97.834 -27.5 -141.501s-44 -82 -77 -115s-71.333 -58.667 -115 -77s-90.5 -27.5 -140.5 -27.5zM405 60c40 0 77 7.33203 111 21.999s63.833 35.167 89.5 61.5s45.667 57.166 60 92.499s21.5 73.333 21.5 114
c0 41.333 -7.16699 79.5 -21.5 114.5s-34.333 65.667 -60 92s-55.5 46.833 -89.5 61.5s-71 22 -111 22s-77.167 -7.33301 -111.5 -22s-64.333 -35.167 -90 -61.5s-45.667 -57 -60 -92s-21.5 -72.833 -21.5 -113.5c0 -41.333 7.16699 -79.666 21.5 -114.999
s34.333 -66.166 60 -92.499s55.667 -46.833 90 -61.5s71.5 -22 111.5 -22zM488 794.999l-84 80l-83 -80h-60l104 121h80l104 -121h-61z" />
    <glyph glyph-name="Otilde" unicode="&#xd5;" horiz-adv-x="809" 
d="M405 -11c-50.667 0 -97.834 9.16699 -141.501 27.5s-82 44 -115 77s-58.667 71.333 -77 115s-27.5 90.834 -27.5 141.501s9.16699 97.834 27.5 141.501s44 82 77 115s71.333 58.667 115 77s90.834 27.5 141.501 27.5c50 0 96.833 -9.16699 140.5 -27.5s82 -44 115 -77
s58.667 -71.333 77 -115s27.5 -90.834 27.5 -141.501s-9.16699 -97.834 -27.5 -141.501s-44 -82 -77 -115s-71.333 -58.667 -115 -77s-90.5 -27.5 -140.5 -27.5zM405 60c40 0 77 7.33203 111 21.999s63.833 35.167 89.5 61.5s45.667 57.166 60 92.499s21.5 73.333 21.5 114
c0 41.333 -7.16699 79.5 -21.5 114.5s-34.333 65.667 -60 92s-55.5 46.833 -89.5 61.5s-71 22 -111 22s-77.167 -7.33301 -111.5 -22s-64.333 -35.167 -90 -61.5s-45.667 -57 -60 -92s-21.5 -72.833 -21.5 -113.5c0 -41.333 7.16699 -79.666 21.5 -114.999
s34.333 -66.166 60 -92.499s55.667 -46.833 90 -61.5s71.5 -22 111.5 -22zM289 793.999l-52 10c14.667 66.667 46 100 94 100c18 0 35.5 -4.5 52.5 -13.5s33.167 -18.167 48.5 -27.5s30 -14 44 -14c11.333 0 20.5 4.33301 27.5 13s12.833 23.334 17.5 44.001l51 -10
c-6.66699 -33.333 -18 -58.333 -34 -75s-36 -25 -60 -25c-17.333 0 -34.5 4.66699 -51.5 14l-49 27.5c-15.667 9 -30.5 13.5 -44.5 13.5c-12 0 -21.333 -4.33301 -28 -13s-12 -23.334 -16 -44.001z" />
    <glyph glyph-name="Odieresis" unicode="&#xd6;" horiz-adv-x="809" 
d="M405 -11c-50.667 0 -97.834 9.16699 -141.501 27.5s-82 44 -115 77s-58.667 71.333 -77 115s-27.5 90.834 -27.5 141.501s9.16699 97.834 27.5 141.501s44 82 77 115s71.333 58.667 115 77s90.834 27.5 141.501 27.5c50 0 96.833 -9.16699 140.5 -27.5s82 -44 115 -77
s58.667 -71.333 77 -115s27.5 -90.834 27.5 -141.501s-9.16699 -97.834 -27.5 -141.501s-44 -82 -77 -115s-71.333 -58.667 -115 -77s-90.5 -27.5 -140.5 -27.5zM405 60c40 0 77 7.33203 111 21.999s63.833 35.167 89.5 61.5s45.667 57.166 60 92.499s21.5 73.333 21.5 114
c0 41.333 -7.16699 79.5 -21.5 114.5s-34.333 65.667 -60 92s-55.5 46.833 -89.5 61.5s-71 22 -111 22s-77.167 -7.33301 -111.5 -22s-64.333 -35.167 -90 -61.5s-45.667 -57 -60 -92s-21.5 -72.833 -21.5 -113.5c0 -41.333 7.16699 -79.666 21.5 -114.999
s34.333 -66.166 60 -92.499s55.667 -46.833 90 -61.5s71.5 -22 111.5 -22zM318 809.999c-14 0 -25.833 4.66699 -35.5 14s-14.5 20.666 -14.5 33.999s4.83301 24.666 14.5 33.999s21.5 14 35.5 14s25.833 -4.66699 35.5 -14s14.5 -20.666 14.5 -33.999
s-4.83301 -24.666 -14.5 -33.999s-21.5 -14 -35.5 -14zM492 809.999c-14 0 -25.833 4.66699 -35.5 14s-14.5 20.666 -14.5 33.999s4.83301 24.666 14.5 33.999s21.5 14 35.5 14s25.833 -4.66699 35.5 -14s14.5 -20.666 14.5 -33.999s-4.83301 -24.666 -14.5 -33.999
s-21.5 -14 -35.5 -14z" />
    <glyph glyph-name="multiply" unicode="&#xd7;" 
d="M152 162l-37 40l146 156l-147 158l38 41l148 -157l147 157l39 -40l-148 -157l148 -158l-40 -41l-147 157z" />
    <glyph glyph-name="Oslash" unicode="&#xd8;" horiz-adv-x="809" 
d="M405 -11c-38.667 0 -75.833 5.66797 -111.5 17.001s-68.167 27.333 -97.5 48l-45 -54h-79l77 93c-32.667 32.667 -58.334 71 -77.001 115s-28 91.333 -28 142s9.16699 97.834 27.5 141.501s44 82 77 115s71.333 58.667 115 77s90.834 27.5 141.501 27.5
c38 0 74.333 -5.5 109 -16.5s66.334 -26.167 95.001 -45.5l42 51h81l-75 -90c33.333 -32.667 59.666 -71.334 78.999 -116.001s29 -92.667 29 -144c0 -50.667 -9.16699 -97.834 -27.5 -141.501s-44 -82 -77 -115s-71.333 -58.667 -115 -77s-90.5 -27.5 -140.5 -27.5z
M197.001 151.001l365.001 441.999c-22 15.333 -46.333 27 -73 35s-54.667 12 -84 12c-40 0 -77.167 -7.33301 -111.5 -22s-64.333 -35.167 -90 -61.5s-45.667 -57 -60 -92s-21.5 -73.167 -21.5 -114.5c0 -38.667 6.66699 -75.167 20 -109.5s31.666 -64.166 54.999 -89.499z
M405.002 60c40 0 77 7.33398 111 22.001s63.833 35.167 89.5 61.5s45.667 57.166 60 92.499s21.5 73.333 21.5 114c0 40 -6.83301 77.333 -20.5 112s-32.5 64.667 -56.5 90l-367 -442c22.667 -15.333 47.667 -27.5 75 -36.5s56.333 -13.5 87 -13.5z" />
    <glyph glyph-name="Ugrave" unicode="&#xd9;" horiz-adv-x="704" 
d="M352 -11c-59.333 0 -110.668 12.5 -154.001 37.5s-76.666 60.5 -99.999 106.5s-35 100.333 -35 163v404h77v-404c0 -48 8.66699 -89.667 26 -125s42 -62.666 74 -81.999s69.333 -29 112 -29c43.333 0 80.833 9.66699 112.5 29s56.167 46.666 73.5 81.999s26 77 26 125
v404h77v-404c0 -62.667 -11.833 -117 -35.5 -163s-57 -81.5 -100 -106.5s-94.167 -37.5 -153.5 -37.5zM341.998 799l-123 116h96l92 -116h-65z" />
    <glyph glyph-name="Uacute" unicode="&#xda;" horiz-adv-x="704" 
d="M352 -11c-59.333 0 -110.668 12.5 -154.001 37.5s-76.666 60.5 -99.999 106.5s-35 100.333 -35 163v404h77v-404c0 -48 8.66699 -89.667 26 -125s42 -62.666 74 -81.999s69.333 -29 112 -29c43.333 0 80.833 9.66699 112.5 29s56.167 46.666 73.5 81.999s26 77 26 125
v404h77v-404c0 -62.667 -11.833 -117 -35.5 -163s-57 -81.5 -100 -106.5s-94.167 -37.5 -153.5 -37.5zM287.998 799l94 116h95l-124 -116h-65z" />
    <glyph glyph-name="Ucircumflex" unicode="&#xdb;" horiz-adv-x="704" 
d="M352 -11c-59.333 0 -110.668 12.5 -154.001 37.5s-76.666 60.5 -99.999 106.5s-35 100.333 -35 163v404h77v-404c0 -48 8.66699 -89.667 26 -125s42 -62.666 74 -81.999s69.333 -29 112 -29c43.333 0 80.833 9.66699 112.5 29s56.167 46.666 73.5 81.999s26 77 26 125
v404h77v-404c0 -62.667 -11.833 -117 -35.5 -163s-57 -81.5 -100 -106.5s-94.167 -37.5 -153.5 -37.5zM434.998 795l-84 80l-83 -80h-60l104 121h80l104 -121h-61z" />
    <glyph glyph-name="Udieresis" unicode="&#xdc;" horiz-adv-x="704" 
d="M352 -11c-59.333 0 -110.668 12.5 -154.001 37.5s-76.666 60.5 -99.999 106.5s-35 100.333 -35 163v404h77v-404c0 -48 8.66699 -89.667 26 -125s42 -62.666 74 -81.999s69.333 -29 112 -29c43.333 0 80.833 9.66699 112.5 29s56.167 46.666 73.5 81.999s26 77 26 125
v404h77v-404c0 -62.667 -11.833 -117 -35.5 -163s-57 -81.5 -100 -106.5s-94.167 -37.5 -153.5 -37.5zM264.998 810c-14 0 -25.833 4.66699 -35.5 14s-14.5 20.666 -14.5 33.999s4.83301 24.666 14.5 33.999s21.5 14 35.5 14s25.833 -4.66699 35.5 -14
s14.5 -20.666 14.5 -33.999s-4.83301 -24.666 -14.5 -33.999s-21.5 -14 -35.5 -14zM438.998 810c-14 0 -25.833 4.66699 -35.5 14s-14.5 20.666 -14.5 33.999s4.83301 24.666 14.5 33.999s21.5 14 35.5 14s25.833 -4.66699 35.5 -14s14.5 -20.666 14.5 -33.999
s-4.83301 -24.666 -14.5 -33.999s-21.5 -14 -35.5 -14z" />
    <glyph glyph-name="Yacute" unicode="&#xdd;" horiz-adv-x="639" 
d="M281 0v285l-278 415h90l229 -347l228 347h87l-279 -418v-282h-77zM256 799l94 116h95l-124 -116h-65z" />
    <glyph glyph-name="Thorn" unicode="&#xde;" horiz-adv-x="637" 
d="M77 0v699.998h77v-141h229c41.333 0 78.166 -9.16699 110.499 -27.5s57.833 -43.166 76.5 -74.499s28 -67.333 28 -108c0 -39.333 -9.33301 -74.666 -28 -105.999s-44.167 -56 -76.5 -74s-69.166 -27 -110.499 -27h-229v-142h-77zM154 208.998l221 0.00292969
c27.333 0 52 6.16699 74 18.5s39.333 29 52 50s19 44.833 19 71.5c0 27.333 -6.33301 51.666 -19 72.999s-30 38.166 -52 50.499s-46.667 18.166 -74 17.499h-221v-281z" />
    <glyph glyph-name="germandbls" unicode="&#xdf;" horiz-adv-x="628" 
d="M424 -11c-75.333 0 -140.671 27.0039 -196.004 81.0039l45 43c44 -44.667 94 -67 150 -67c34.667 0 62.334 7.16699 83.001 21.5s31 33.166 31 56.499c0 22.667 -6.16699 40.667 -18.5 54s-33.833 25 -64.5 35l-80 26c-40 13.333 -68.167 27.833 -84.5 43.5
s-24.5 35.834 -24.5 60.501c0 23.333 6.5 42.333 19.5 57s29.167 27.167 48.5 37.5l58 30c19.333 9.66699 35.5 21 48.5 34s19.5 29.5 19.5 49.5c0 29.333 -14.167 53 -42.5 71s-64.833 27 -109.5 27c-55.333 0 -97.666 -15 -126.999 -45s-44 -73.333 -44 -130v-474h-73v472
c0 75.333 21.333 134 64 176s102 63 178 63c46 0 85.833 -6.33301 119.5 -19s59.834 -30.5 78.501 -53.5s28 -50.167 28 -81.5c0 -27.333 -6.5 -49.833 -19.5 -67.5s-29.167 -32.334 -48.5 -44.001s-38.666 -21.834 -57.999 -30.501s-35.5 -17.834 -48.5 -27.501
s-19.5 -21.5 -19.5 -35.5c0 -12.667 4.66699 -23 14 -31s27.333 -16.667 54 -26l77 -26c44 -14.667 75.667 -32.834 95 -54.501s29 -49.5 29 -83.5c0 -42.667 -16.667 -77 -50 -103s-77.333 -39 -132 -39z" />
    <glyph glyph-name="agrave" unicode="&#xe0;" horiz-adv-x="516" 
d="M221 -9c-36.667 0 -68.832 6.33301 -96.499 19s-49.334 30.334 -65.001 53.001s-23.5 49 -23.5 79c0 47.333 18 84.666 54 111.999s84.667 41 146 41c54 0 103 -11.333 147 -34v66c0 40 -11.333 70.167 -34 90.5s-55.667 30.5 -99 30.5c-24.667 0 -49.5 -3.5 -74.5 -10.5
s-52.5 -18.167 -82.5 -33.5l-28 57c36 17.333 69.333 30 100 38s61.334 12 92.001 12c63.333 0 112.166 -15 146.499 -45s51.5 -73 51.5 -129v-337h-72v49c-22.667 -19.333 -47.5 -33.833 -74.5 -43.5s-56.167 -14.5 -87.5 -14.5zM107.002 144
c0 -28 11.832 -50.833 35.499 -68.5s54.167 -26.5 91.5 -26.5c30 0 57.333 4.66699 82 14s47 24 67 44v94c-20.667 14 -42.667 24.167 -66 30.5s-49.666 9.5 -78.999 9.5c-40 0 -71.833 -8.83301 -95.5 -26.5s-35.5 -41.167 -35.5 -70.5zM239.001 600l-123 116h96l92 -116
h-65z" />
    <glyph glyph-name="aacute" unicode="&#xe1;" horiz-adv-x="516" 
d="M221 -9c-36.667 0 -68.832 6.33301 -96.499 19s-49.334 30.334 -65.001 53.001s-23.5 49 -23.5 79c0 47.333 18 84.666 54 111.999s84.667 41 146 41c54 0 103 -11.333 147 -34v66c0 40 -11.333 70.167 -34 90.5s-55.667 30.5 -99 30.5c-24.667 0 -49.5 -3.5 -74.5 -10.5
s-52.5 -18.167 -82.5 -33.5l-28 57c36 17.333 69.333 30 100 38s61.334 12 92.001 12c63.333 0 112.166 -15 146.499 -45s51.5 -73 51.5 -129v-337h-72v49c-22.667 -19.333 -47.5 -33.833 -74.5 -43.5s-56.167 -14.5 -87.5 -14.5zM107.002 144
c0 -28 11.832 -50.833 35.499 -68.5s54.167 -26.5 91.5 -26.5c30 0 57.333 4.66699 82 14s47 24 67 44v94c-20.667 14 -42.667 24.167 -66 30.5s-49.666 9.5 -78.999 9.5c-40 0 -71.833 -8.83301 -95.5 -26.5s-35.5 -41.167 -35.5 -70.5zM185.001 600l94 116h95l-124 -116
h-65z" />
    <glyph glyph-name="acircumflex" unicode="&#xe2;" horiz-adv-x="516" 
d="M221 -9c-36.667 0 -68.832 6.33301 -96.499 19s-49.334 30.334 -65.001 53.001s-23.5 49 -23.5 79c0 47.333 18 84.666 54 111.999s84.667 41 146 41c54 0 103 -11.333 147 -34v66c0 40 -11.333 70.167 -34 90.5s-55.667 30.5 -99 30.5c-24.667 0 -49.5 -3.5 -74.5 -10.5
s-52.5 -18.167 -82.5 -33.5l-28 57c36 17.333 69.333 30 100 38s61.334 12 92.001 12c63.333 0 112.166 -15 146.499 -45s51.5 -73 51.5 -129v-337h-72v49c-22.667 -19.333 -47.5 -33.833 -74.5 -43.5s-56.167 -14.5 -87.5 -14.5zM107.002 144
c0 -28 11.832 -50.833 35.499 -68.5s54.167 -26.5 91.5 -26.5c30 0 57.333 4.66699 82 14s47 24 67 44v94c-20.667 14 -42.667 24.167 -66 30.5s-49.666 9.5 -78.999 9.5c-40 0 -71.833 -8.83301 -95.5 -26.5s-35.5 -41.167 -35.5 -70.5zM332.001 596l-84 80l-83 -80h-60
l104 121h80l104 -121h-61z" />
    <glyph glyph-name="atilde" unicode="&#xe3;" horiz-adv-x="516" 
d="M221 -9c-36.667 0 -68.832 6.33301 -96.499 19s-49.334 30.334 -65.001 53.001s-23.5 49 -23.5 79c0 47.333 18 84.666 54 111.999s84.667 41 146 41c54 0 103 -11.333 147 -34v66c0 40 -11.333 70.167 -34 90.5s-55.667 30.5 -99 30.5c-24.667 0 -49.5 -3.5 -74.5 -10.5
s-52.5 -18.167 -82.5 -33.5l-28 57c36 17.333 69.333 30 100 38s61.334 12 92.001 12c63.333 0 112.166 -15 146.499 -45s51.5 -73 51.5 -129v-337h-72v49c-22.667 -19.333 -47.5 -33.833 -74.5 -43.5s-56.167 -14.5 -87.5 -14.5zM107.002 144
c0 -28 11.832 -50.833 35.499 -68.5s54.167 -26.5 91.5 -26.5c30 0 57.333 4.66699 82 14s47 24 67 44v94c-20.667 14 -42.667 24.167 -66 30.5s-49.666 9.5 -78.999 9.5c-40 0 -71.833 -8.83301 -95.5 -26.5s-35.5 -41.167 -35.5 -70.5zM133.001 595l-52 10
c14.667 66.667 46 100 94 100c18 0 35.5 -4.5 52.5 -13.5s33.167 -18.167 48.5 -27.5s30 -14 44 -14c11.333 0 20.5 4.33301 27.5 13s12.833 23.334 17.5 44.001l51 -10c-6.66699 -33.333 -18 -58.333 -34 -75s-36 -25 -60 -25c-17.333 0 -34.5 4.66699 -51.5 14l-49 27.5
c-15.667 9 -30.5 13.5 -44.5 13.5c-12 0 -21.333 -4.33301 -28 -13s-12 -23.334 -16 -44.001z" />
    <glyph glyph-name="adieresis" unicode="&#xe4;" horiz-adv-x="516" 
d="M221 -9c-36.667 0 -68.832 6.33301 -96.499 19s-49.334 30.334 -65.001 53.001s-23.5 49 -23.5 79c0 47.333 18 84.666 54 111.999s84.667 41 146 41c54 0 103 -11.333 147 -34v66c0 40 -11.333 70.167 -34 90.5s-55.667 30.5 -99 30.5c-24.667 0 -49.5 -3.5 -74.5 -10.5
s-52.5 -18.167 -82.5 -33.5l-28 57c36 17.333 69.333 30 100 38s61.334 12 92.001 12c63.333 0 112.166 -15 146.499 -45s51.5 -73 51.5 -129v-337h-72v49c-22.667 -19.333 -47.5 -33.833 -74.5 -43.5s-56.167 -14.5 -87.5 -14.5zM107.002 144
c0 -28 11.832 -50.833 35.499 -68.5s54.167 -26.5 91.5 -26.5c30 0 57.333 4.66699 82 14s47 24 67 44v94c-20.667 14 -42.667 24.167 -66 30.5s-49.666 9.5 -78.999 9.5c-40 0 -71.833 -8.83301 -95.5 -26.5s-35.5 -41.167 -35.5 -70.5zM162.001 611
c-14 0 -25.833 4.66699 -35.5 14s-14.5 20.666 -14.5 33.999s4.83301 24.666 14.5 33.999s21.5 14 35.5 14s25.833 -4.66699 35.5 -14s14.5 -20.666 14.5 -33.999s-4.83301 -24.666 -14.5 -33.999s-21.5 -14 -35.5 -14zM336.001 611c-14 0 -25.833 4.66699 -35.5 14
s-14.5 20.666 -14.5 33.999s4.83301 24.666 14.5 33.999s21.5 14 35.5 14s25.833 -4.66699 35.5 -14s14.5 -20.666 14.5 -33.999s-4.83301 -24.666 -14.5 -33.999s-21.5 -14 -35.5 -14z" />
    <glyph glyph-name="aring" unicode="&#xe5;" horiz-adv-x="516" 
d="M221 -9c-36.667 0 -68.832 6.33301 -96.499 19s-49.334 30.334 -65.001 53.001s-23.5 49 -23.5 79c0 47.333 18 84.666 54 111.999s84.667 41 146 41c54 0 103 -11.333 147 -34v66c0 40 -11.333 70.167 -34 90.5s-55.667 30.5 -99 30.5c-24.667 0 -49.5 -3.5 -74.5 -10.5
s-52.5 -18.167 -82.5 -33.5l-28 57c36 17.333 69.333 30 100 38s61.334 12 92.001 12c63.333 0 112.166 -15 146.499 -45s51.5 -73 51.5 -129v-337h-72v49c-22.667 -19.333 -47.5 -33.833 -74.5 -43.5s-56.167 -14.5 -87.5 -14.5zM107.002 144
c0 -28 11.832 -50.833 35.499 -68.5s54.167 -26.5 91.5 -26.5c30 0 57.333 4.66699 82 14s47 24 67 44v94c-20.667 14 -42.667 24.167 -66 30.5s-49.666 9.5 -78.999 9.5c-40 0 -71.833 -8.83301 -95.5 -26.5s-35.5 -41.167 -35.5 -70.5zM249.001 583
c-20.667 0 -39.5 5 -56.5 15s-30.5 23.5 -40.5 40.5s-15 35.5 -15 55.5c0 20.667 5 39.334 15 56.001s23.5 30 40.5 40s35.833 15 56.5 15s39.5 -5 56.5 -15s30.5 -23.333 40.5 -40s15 -35.334 15 -56.001c0 -20 -5 -38.5 -15 -55.5s-23.5 -30.5 -40.5 -40.5
s-35.833 -15 -56.5 -15zM249.001 624c19.333 0 35.833 6.83301 49.5 20.5s20.5 30.167 20.5 49.5s-6.83301 35.833 -20.5 49.5s-30.167 20.5 -49.5 20.5s-35.833 -6.83301 -49.5 -20.5s-20.5 -30.167 -20.5 -49.5s6.83301 -35.833 20.5 -49.5s30.167 -20.5 49.5 -20.5z" />
    <glyph glyph-name="ae" unicode="&#xe6;" horiz-adv-x="907" 
d="M221 -9c-36.667 0 -68.835 6.33105 -96.502 18.998s-49.167 30.334 -64.5 53.001s-23 49 -23 79c0 46.667 18.333 83.834 55 111.501s85.667 41.5 147 41.5c53.333 0 101.333 -10.667 144 -32v64c0 40 -11.333 70.167 -34 90.5s-55.667 30.5 -99 30.5
c-24.667 0 -49.5 -3.5 -74.5 -10.5s-52.5 -18.167 -82.5 -33.5l-28 57c36 17.333 69.333 30 100 38s61.334 12 92.001 12c47.333 0 86.5 -8.33301 117.5 -25s52.833 -41 65.5 -73c22 30 49.5 53.5 82.5 70.5s68.833 25.5 107.5 25.5c44.667 0 84.834 -11.5 120.501 -34.5
s64 -54 85 -93s31.5 -82.5 31.5 -130.5v-23h-411c4 -32.667 14.5 -62 31.5 -88s39.167 -46.5 66.5 -61.5s57.333 -22.5 90 -22.5c26 0 51.333 4 76 12s45.334 19.333 62.001 34l46 -49c-28 -20.667 -57.167 -36.167 -87.5 -46.5s-63.5 -15.5 -99.5 -15.5
c-42.667 0 -81.834 9.16699 -117.501 27.5s-65.167 42.833 -88.5 73.5c-27.333 -32.667 -59 -57.667 -95 -75s-75.667 -26 -119 -26zM457.999 286.998h335c-4 30 -13.833 56.833 -29.5 80.5s-35.167 42.334 -58.5 56.001s-49 20.5 -77 20.5c-28.667 0 -55 -6.66699 -79 -20
s-44 -31.833 -60 -55.5s-26.333 -50.834 -31 -81.501zM233.999 48.998c34.667 0 66.333 7.33301 95 22s55 36.667 79 66c-4.66699 10 -8.66699 20.333 -12 31s-6.33301 21.667 -9 33c-20.667 14 -42.834 24.167 -66.501 30.5s-50.167 9.5 -79.5 9.5
c-40 0 -72.167 -8.83301 -96.5 -26.5s-36.5 -41.167 -36.5 -70.5c0 -28 11.833 -50.833 35.5 -68.5s53.834 -26.5 90.501 -26.5z" />
    <glyph glyph-name="ccedilla" unicode="&#xe7;" horiz-adv-x="513" 
d="M282 -228c-46 0 -83.666 13.667 -112.999 41l30 32c25.333 -21.333 53 -32 83 -32c20 0 35.667 4.5 47 13.5s17 20.833 17 35.5s-6.16699 26.167 -18.5 34.5s-29.166 12.5 -50.499 12.5h-29l24 83c-44 4 -83.5 17.833 -118.5 41.5s-62.667 54.334 -83 92.001
s-30.5 79.5 -30.5 125.5c0 48.667 11.333 92.5 34 131.5s53.334 70.167 92.001 93.5s81.667 35 129 35c36.667 0 72 -6.83301 106 -20.5s64 -33.167 90 -58.5l-47 -54c-20 21.333 -42.833 37.5 -68.5 48.5s-52.167 16.5 -79.5 16.5c-34 0 -64.833 -8.5 -92.5 -25.5
s-49.667 -40 -66 -69s-24.5 -61.5 -24.5 -97.5s8.16699 -68.667 24.5 -98s38.5 -52.5 66.5 -69.5s59 -25.5 93 -25.5c27.333 0 53.166 5.33301 77.499 16s47.166 26.334 68.499 47.001l46 -50c-24 -22.667 -50.833 -40.834 -80.5 -54.501s-60.834 -21.834 -93.501 -24.501
l-13 -47c29.333 -1.33301 52.5 -9.33301 69.5 -24s25.5 -34 25.5 -58c0 -26.667 -10.833 -48.5 -32.5 -65.5s-49.167 -25.5 -82.5 -25.5z" />
    <glyph glyph-name="egrave" unicode="&#xe8;" horiz-adv-x="564" 
d="M298 -9c-48 0 -91.502 11.5 -130.502 34.5s-70 54.167 -93 93.5s-34.5 83.333 -34.5 132c0 48 11 91.5 33 130.5s51.667 70 89 93s79 34.5 125 34.5c44.667 0 84.834 -11.5 120.501 -34.5s64 -54 85 -93s31.5 -82.5 31.5 -130.5v-23h-411c4 -32.667 14.5 -62 31.5 -88
s39.167 -46.5 66.5 -61.5s57.333 -22.5 90 -22.5c26 0 51.333 4 76 12s45.334 19.333 62.001 34l46 -49c-28 -20.667 -57.167 -36.167 -87.5 -46.5s-63.5 -15.5 -99.5 -15.5zM114.998 287h335c-4 30 -13.833 56.833 -29.5 80.5s-35.167 42.334 -58.5 56.001
s-49 20.5 -77 20.5c-28.667 0 -55 -6.66699 -79 -20s-44 -31.833 -60 -55.5s-26.333 -50.834 -31 -81.501zM275.998 600l-123 116h96l92 -116h-65z" />
    <glyph glyph-name="eacute" unicode="&#xe9;" horiz-adv-x="564" 
d="M298 -9c-48 0 -91.502 11.5 -130.502 34.5s-70 54.167 -93 93.5s-34.5 83.333 -34.5 132c0 48 11 91.5 33 130.5s51.667 70 89 93s79 34.5 125 34.5c44.667 0 84.834 -11.5 120.501 -34.5s64 -54 85 -93s31.5 -82.5 31.5 -130.5v-23h-411c4 -32.667 14.5 -62 31.5 -88
s39.167 -46.5 66.5 -61.5s57.333 -22.5 90 -22.5c26 0 51.333 4 76 12s45.334 19.333 62.001 34l46 -49c-28 -20.667 -57.167 -36.167 -87.5 -46.5s-63.5 -15.5 -99.5 -15.5zM114.998 287h335c-4 30 -13.833 56.833 -29.5 80.5s-35.167 42.334 -58.5 56.001
s-49 20.5 -77 20.5c-28.667 0 -55 -6.66699 -79 -20s-44 -31.833 -60 -55.5s-26.333 -50.834 -31 -81.501zM221.998 600l94 116h95l-124 -116h-65z" />
    <glyph glyph-name="ecircumflex" unicode="&#xea;" horiz-adv-x="564" 
d="M298 -9c-48 0 -91.502 11.5 -130.502 34.5s-70 54.167 -93 93.5s-34.5 83.333 -34.5 132c0 48 11 91.5 33 130.5s51.667 70 89 93s79 34.5 125 34.5c44.667 0 84.834 -11.5 120.501 -34.5s64 -54 85 -93s31.5 -82.5 31.5 -130.5v-23h-411c4 -32.667 14.5 -62 31.5 -88
s39.167 -46.5 66.5 -61.5s57.333 -22.5 90 -22.5c26 0 51.333 4 76 12s45.334 19.333 62.001 34l46 -49c-28 -20.667 -57.167 -36.167 -87.5 -46.5s-63.5 -15.5 -99.5 -15.5zM114.998 287h335c-4 30 -13.833 56.833 -29.5 80.5s-35.167 42.334 -58.5 56.001
s-49 20.5 -77 20.5c-28.667 0 -55 -6.66699 -79 -20s-44 -31.833 -60 -55.5s-26.333 -50.834 -31 -81.501zM368.998 596l-84 80l-83 -80h-60l104 121h80l104 -121h-61z" />
    <glyph glyph-name="edieresis" unicode="&#xeb;" horiz-adv-x="564" 
d="M298 -9c-48 0 -91.502 11.5 -130.502 34.5s-70 54.167 -93 93.5s-34.5 83.333 -34.5 132c0 48 11 91.5 33 130.5s51.667 70 89 93s79 34.5 125 34.5c44.667 0 84.834 -11.5 120.501 -34.5s64 -54 85 -93s31.5 -82.5 31.5 -130.5v-23h-411c4 -32.667 14.5 -62 31.5 -88
s39.167 -46.5 66.5 -61.5s57.333 -22.5 90 -22.5c26 0 51.333 4 76 12s45.334 19.333 62.001 34l46 -49c-28 -20.667 -57.167 -36.167 -87.5 -46.5s-63.5 -15.5 -99.5 -15.5zM114.998 287h335c-4 30 -13.833 56.833 -29.5 80.5s-35.167 42.334 -58.5 56.001
s-49 20.5 -77 20.5c-28.667 0 -55 -6.66699 -79 -20s-44 -31.833 -60 -55.5s-26.333 -50.834 -31 -81.501zM198.998 611c-14 0 -25.833 4.66699 -35.5 14s-14.5 20.666 -14.5 33.999s4.83301 24.666 14.5 33.999s21.5 14 35.5 14s25.833 -4.66699 35.5 -14
s14.5 -20.666 14.5 -33.999s-4.83301 -24.666 -14.5 -33.999s-21.5 -14 -35.5 -14zM372.998 611c-14 0 -25.833 4.66699 -35.5 14s-14.5 20.666 -14.5 33.999s4.83301 24.666 14.5 33.999s21.5 14 35.5 14s25.833 -4.66699 35.5 -14s14.5 -20.666 14.5 -33.999
s-4.83301 -24.666 -14.5 -33.999s-21.5 -14 -35.5 -14z" />
    <glyph glyph-name="igrave" unicode="&#xec;" horiz-adv-x="200" 
d="M63 0v501h74v-501h-74zM90 600l-123 116h96l92 -116h-65z" />
    <glyph glyph-name="iacute" unicode="&#xed;" horiz-adv-x="200" 
d="M63 0v501h74v-501h-74zM36 600l94 116h95l-124 -116h-65z" />
    <glyph glyph-name="icircumflex" unicode="&#xee;" horiz-adv-x="200" 
d="M63 0v501h74v-501h-74zM183 596l-84 80l-83 -80h-60l104 121h80l104 -121h-61z" />
    <glyph glyph-name="idieresis" unicode="&#xef;" horiz-adv-x="200" 
d="M63 0v501h74v-501h-74zM13 611c-14 0 -25.833 4.66699 -35.5 14s-14.5 20.666 -14.5 33.999s4.83301 24.666 14.5 33.999s21.5 14 35.5 14s25.833 -4.66699 35.5 -14s14.5 -20.666 14.5 -33.999s-4.83301 -24.666 -14.5 -33.999s-21.5 -14 -35.5 -14zM187 611
c-14 0 -25.833 4.66699 -35.5 14s-14.5 20.666 -14.5 33.999s4.83301 24.666 14.5 33.999s21.5 14 35.5 14s25.833 -4.66699 35.5 -14s14.5 -20.666 14.5 -33.999s-4.83301 -24.666 -14.5 -33.999s-21.5 -14 -35.5 -14z" />
    <glyph glyph-name="eth" unicode="&#xf0;" horiz-adv-x="601" 
d="M290 -10c-46.667 0 -88.8301 11.334 -126.497 34.001s-67.5 53.334 -89.5 92.001s-33 82 -33 130c0 34 6.16699 65.833 18.5 95.5s29.666 55.667 51.999 78s48.333 39.666 78 51.999s61.5 18.5 95.5 18.5c41.333 0 78.166 -9.5 110.499 -28.5s57.833 -44.833 76.5 -77.5
c-6.66699 41.333 -19.167 79.666 -37.5 114.999s-41.5 66.333 -69.5 93l-102 -64l-31 46l87 54c-15.333 11.333 -32 21 -50 29s-37 14.667 -57 20l30 54c25.333 -8 49.5 -17.5 72.5 -28.5s44.167 -23.833 63.5 -38.5l110 69l31 -46l-97 -60
c41.333 -40 72.666 -88.167 93.999 -144.5s32 -119.833 32 -190.5c0 -60.667 -10.667 -113.667 -32 -159s-51.333 -80.5 -90 -105.5s-84 -37.5 -136 -37.5zM292.004 57.001c33.333 0 63.5 8.16699 90.5 24.5s48.333 38.5 64 66.5s23.5 59.333 23.5 94
s-7.83301 65.834 -23.5 93.501s-37 49.667 -64 66s-57.167 24.5 -90.5 24.5c-34 0 -64.5 -8.16699 -91.5 -24.5s-48.333 -38.333 -64 -66s-23.5 -58.834 -23.5 -93.501s7.83301 -66 23.5 -94s37 -50.167 64 -66.5s57.5 -24.5 91.5 -24.5z" />
    <glyph glyph-name="ntilde" unicode="&#xf1;" horiz-adv-x="549" 
d="M63 0l-0.000976562 500.999h74v-59c39.333 46 92 69 158 69c38 0 71.5 -8.16699 100.5 -24.5s51.667 -39 68 -68s24.5 -62.833 24.5 -101.5v-317h-73v302c0 44.667 -12.5 79.834 -37.5 105.501s-59.167 38.5 -102.5 38.5c-30 0 -56.667 -6.66699 -80 -20
s-42.666 -32.333 -57.999 -57v-369h-74zM159.999 594.999l-52 10c14.667 66.667 46 100 94 100c18 0 35.5 -4.5 52.5 -13.5s33.167 -18.167 48.5 -27.5s30 -14 44 -14c11.333 0 20.5 4.33301 27.5 13s12.833 23.334 17.5 44.001l51 -10
c-6.66699 -33.333 -18 -58.333 -34 -75s-36 -25 -60 -25c-17.333 0 -34.5 4.66699 -51.5 14l-49 27.5c-15.667 9 -30.5 13.5 -44.5 13.5c-12 0 -21.333 -4.33301 -28 -13s-12 -23.334 -16 -44.001z" />
    <glyph glyph-name="ograve" unicode="&#xf2;" horiz-adv-x="592" 
d="M296 -10c-47.333 0 -90.5 11.5 -129.5 34.5s-69.833 54.167 -92.5 93.5s-34 83.333 -34 132s11.333 92.667 34 132s53.5 70.5 92.5 93.5s82.167 34.5 129.5 34.5c48 0 91.333 -11.5 130 -34.5s69.334 -54.167 92.001 -93.5s34 -83.333 34 -132s-11.333 -92.667 -34 -132
s-53.334 -70.5 -92.001 -93.5s-82 -34.5 -130 -34.5zM296 56c34 0 64.833 8.66699 92.5 26s49.667 40.666 66 69.999s24.5 62 24.5 98c0 36.667 -8.16699 69.5 -24.5 98.5s-38.333 52.167 -66 69.5s-58.5 26 -92.5 26s-64.833 -8.66699 -92.5 -26s-49.667 -40.5 -66 -69.5
s-24.5 -61.833 -24.5 -98.5c0 -36 8.16699 -68.667 24.5 -98s38.333 -52.666 66 -69.999s58.5 -26 92.5 -26zM286 600l-123 116h96l92 -116h-65z" />
    <glyph glyph-name="oacute" unicode="&#xf3;" horiz-adv-x="592" 
d="M296 -10c-47.333 0 -90.5 11.5 -129.5 34.5s-69.833 54.167 -92.5 93.5s-34 83.333 -34 132s11.333 92.667 34 132s53.5 70.5 92.5 93.5s82.167 34.5 129.5 34.5c48 0 91.333 -11.5 130 -34.5s69.334 -54.167 92.001 -93.5s34 -83.333 34 -132s-11.333 -92.667 -34 -132
s-53.334 -70.5 -92.001 -93.5s-82 -34.5 -130 -34.5zM296 56c34 0 64.833 8.66699 92.5 26s49.667 40.666 66 69.999s24.5 62 24.5 98c0 36.667 -8.16699 69.5 -24.5 98.5s-38.333 52.167 -66 69.5s-58.5 26 -92.5 26s-64.833 -8.66699 -92.5 -26s-49.667 -40.5 -66 -69.5
s-24.5 -61.833 -24.5 -98.5c0 -36 8.16699 -68.667 24.5 -98s38.333 -52.666 66 -69.999s58.5 -26 92.5 -26zM232 600l94 116h95l-124 -116h-65z" />
    <glyph glyph-name="ocircumflex" unicode="&#xf4;" horiz-adv-x="592" 
d="M296 -10c-47.333 0 -90.5 11.5 -129.5 34.5s-69.833 54.167 -92.5 93.5s-34 83.333 -34 132s11.333 92.667 34 132s53.5 70.5 92.5 93.5s82.167 34.5 129.5 34.5c48 0 91.333 -11.5 130 -34.5s69.334 -54.167 92.001 -93.5s34 -83.333 34 -132s-11.333 -92.667 -34 -132
s-53.334 -70.5 -92.001 -93.5s-82 -34.5 -130 -34.5zM296 56c34 0 64.833 8.66699 92.5 26s49.667 40.666 66 69.999s24.5 62 24.5 98c0 36.667 -8.16699 69.5 -24.5 98.5s-38.333 52.167 -66 69.5s-58.5 26 -92.5 26s-64.833 -8.66699 -92.5 -26s-49.667 -40.5 -66 -69.5
s-24.5 -61.833 -24.5 -98.5c0 -36 8.16699 -68.667 24.5 -98s38.333 -52.666 66 -69.999s58.5 -26 92.5 -26zM379 596l-84 80l-83 -80h-60l104 121h80l104 -121h-61z" />
    <glyph glyph-name="otilde" unicode="&#xf5;" horiz-adv-x="592" 
d="M296 -10c-47.333 0 -90.5 11.5 -129.5 34.5s-69.833 54.167 -92.5 93.5s-34 83.333 -34 132s11.333 92.667 34 132s53.5 70.5 92.5 93.5s82.167 34.5 129.5 34.5c48 0 91.333 -11.5 130 -34.5s69.334 -54.167 92.001 -93.5s34 -83.333 34 -132s-11.333 -92.667 -34 -132
s-53.334 -70.5 -92.001 -93.5s-82 -34.5 -130 -34.5zM296 56c34 0 64.833 8.66699 92.5 26s49.667 40.666 66 69.999s24.5 62 24.5 98c0 36.667 -8.16699 69.5 -24.5 98.5s-38.333 52.167 -66 69.5s-58.5 26 -92.5 26s-64.833 -8.66699 -92.5 -26s-49.667 -40.5 -66 -69.5
s-24.5 -61.833 -24.5 -98.5c0 -36 8.16699 -68.667 24.5 -98s38.333 -52.666 66 -69.999s58.5 -26 92.5 -26zM180 595l-52 10c14.667 66.667 46 100 94 100c18 0 35.5 -4.5 52.5 -13.5s33.167 -18.167 48.5 -27.5s30 -14 44 -14c11.333 0 20.5 4.33301 27.5 13
s12.833 23.334 17.5 44.001l51 -10c-6.66699 -33.333 -18 -58.333 -34 -75s-36 -25 -60 -25c-17.333 0 -34.5 4.66699 -51.5 14l-49 27.5c-15.667 9 -30.5 13.5 -44.5 13.5c-12 0 -21.333 -4.33301 -28 -13s-12 -23.334 -16 -44.001z" />
    <glyph glyph-name="odieresis" unicode="&#xf6;" horiz-adv-x="592" 
d="M296 -10c-47.333 0 -90.5 11.5 -129.5 34.5s-69.833 54.167 -92.5 93.5s-34 83.333 -34 132s11.333 92.667 34 132s53.5 70.5 92.5 93.5s82.167 34.5 129.5 34.5c48 0 91.333 -11.5 130 -34.5s69.334 -54.167 92.001 -93.5s34 -83.333 34 -132s-11.333 -92.667 -34 -132
s-53.334 -70.5 -92.001 -93.5s-82 -34.5 -130 -34.5zM296 56c34 0 64.833 8.66699 92.5 26s49.667 40.666 66 69.999s24.5 62 24.5 98c0 36.667 -8.16699 69.5 -24.5 98.5s-38.333 52.167 -66 69.5s-58.5 26 -92.5 26s-64.833 -8.66699 -92.5 -26s-49.667 -40.5 -66 -69.5
s-24.5 -61.833 -24.5 -98.5c0 -36 8.16699 -68.667 24.5 -98s38.333 -52.666 66 -69.999s58.5 -26 92.5 -26zM209 611c-14 0 -25.833 4.66699 -35.5 14s-14.5 20.666 -14.5 33.999s4.83301 24.666 14.5 33.999s21.5 14 35.5 14s25.833 -4.66699 35.5 -14
s14.5 -20.666 14.5 -33.999s-4.83301 -24.666 -14.5 -33.999s-21.5 -14 -35.5 -14zM383 611c-14 0 -25.833 4.66699 -35.5 14s-14.5 20.666 -14.5 33.999s4.83301 24.666 14.5 33.999s21.5 14 35.5 14s25.833 -4.66699 35.5 -14s14.5 -20.666 14.5 -33.999
s-4.83301 -24.666 -14.5 -33.999s-21.5 -14 -35.5 -14z" />
    <glyph glyph-name="divide" unicode="&#xf7;" 
d="M300 489c-14.667 0 -27.167 5.16699 -37.5 15.5s-15.5 22.833 -15.5 37.5s5.16699 27.167 15.5 37.5s22.833 15.5 37.5 15.5s27.167 -5.16699 37.5 -15.5s15.5 -22.833 15.5 -37.5s-5.16699 -27.167 -15.5 -37.5s-22.833 -15.5 -37.5 -15.5zM300 121
c-14.667 0 -27.167 5.16699 -37.5 15.5s-15.5 22.833 -15.5 37.5s5.16699 27.167 15.5 37.5s22.833 15.5 37.5 15.5s27.167 -5.16699 37.5 -15.5s15.5 -22.833 15.5 -37.5s-5.16699 -27.167 -15.5 -37.5s-22.833 -15.5 -37.5 -15.5zM102 328v60h396v-60h-396z" />
    <glyph glyph-name="oslash" unicode="&#xf8;" horiz-adv-x="592" 
d="M296 -10c-27.333 0 -53.498 3.99902 -78.498 11.999s-47.833 19.333 -68.5 34l-30 -36h-66l58 69c-22 23.333 -39.333 50.5 -52 81.5s-19 64.5 -19 100.5c0 48.667 11.333 92.667 34 132s53.5 70.5 92.5 93.5s82.167 34.5 129.5 34.5c27.333 0 53.166 -4 77.499 -12
s46.833 -19 67.5 -33l30 35h66l-57 -68c22 -23.333 39.333 -50.666 52 -81.999s19 -64.666 19 -99.999c0 -48.667 -11.333 -92.834 -34 -132.501s-53.334 -71 -92.001 -94s-81.667 -34.5 -129 -34.5zM156.002 123.999l242 288.999c-14.667 10 -30.5 17.833 -47.5 23.5
s-35.167 8.5 -54.5 8.5c-34 0 -64.833 -8.66699 -92.5 -26s-49.667 -40.5 -66 -69.5s-24.5 -61.833 -24.5 -98.5c0 -24.667 3.83301 -47.667 11.5 -69s18.167 -40.666 31.5 -57.999zM296.002 55.998c34 0 64.834 8.66602 92.501 25.999s49.5 40.833 65.5 70.5
s24 62.5 24 98.5c0 24.667 -3.83301 47.834 -11.5 69.501s-18.167 40.834 -31.5 57.501l-242 -289c14.667 -10.667 30.667 -18.834 48 -24.501s35.666 -8.5 54.999 -8.5z" />
    <glyph glyph-name="ugrave" unicode="&#xf9;" horiz-adv-x="549" 
d="M255 -10c-38 0 -71.6699 8.16699 -101.003 24.5s-52.166 39 -68.499 68s-24.5 62.833 -24.5 101.5v317h73v-302c0 -44.667 12.667 -79.834 38 -105.501s59.333 -38.5 102 -38.5c30 0 56.833 6.83301 80.5 20.5s42.834 32.834 57.501 57.501v368h74v-501h-74v58
c-39.333 -45.333 -91.666 -68 -156.999 -68zM263.997 600l-123 116h96l92 -116h-65z" />
    <glyph glyph-name="uacute" unicode="&#xfa;" horiz-adv-x="549" 
d="M255 -10c-38 0 -71.6699 8.16699 -101.003 24.5s-52.166 39 -68.499 68s-24.5 62.833 -24.5 101.5v317h73v-302c0 -44.667 12.667 -79.834 38 -105.501s59.333 -38.5 102 -38.5c30 0 56.833 6.83301 80.5 20.5s42.834 32.834 57.501 57.501v368h74v-501h-74v58
c-39.333 -45.333 -91.666 -68 -156.999 -68zM209.997 600l94 116h95l-124 -116h-65z" />
    <glyph glyph-name="ucircumflex" unicode="&#xfb;" horiz-adv-x="549" 
d="M255 -10c-38 0 -71.6699 8.16699 -101.003 24.5s-52.166 39 -68.499 68s-24.5 62.833 -24.5 101.5v317h73v-302c0 -44.667 12.667 -79.834 38 -105.501s59.333 -38.5 102 -38.5c30 0 56.833 6.83301 80.5 20.5s42.834 32.834 57.501 57.501v368h74v-501h-74v58
c-39.333 -45.333 -91.666 -68 -156.999 -68zM356.997 596l-84 80l-83 -80h-60l104 121h80l104 -121h-61z" />
    <glyph glyph-name="udieresis" unicode="&#xfc;" horiz-adv-x="549" 
d="M255 -10c-38 0 -71.6699 8.16699 -101.003 24.5s-52.166 39 -68.499 68s-24.5 62.833 -24.5 101.5v317h73v-302c0 -44.667 12.667 -79.834 38 -105.501s59.333 -38.5 102 -38.5c30 0 56.833 6.83301 80.5 20.5s42.834 32.834 57.501 57.501v368h74v-501h-74v58
c-39.333 -45.333 -91.666 -68 -156.999 -68zM186.997 611c-14 0 -25.833 4.66699 -35.5 14s-14.5 20.666 -14.5 33.999s4.83301 24.666 14.5 33.999s21.5 14 35.5 14s25.833 -4.66699 35.5 -14s14.5 -20.666 14.5 -33.999s-4.83301 -24.666 -14.5 -33.999
s-21.5 -14 -35.5 -14zM360.997 611c-14 0 -25.833 4.66699 -35.5 14s-14.5 20.666 -14.5 33.999s4.83301 24.666 14.5 33.999s21.5 14 35.5 14s25.833 -4.66699 35.5 -14s14.5 -20.666 14.5 -33.999s-4.83301 -24.666 -14.5 -33.999s-21.5 -14 -35.5 -14z" />
    <glyph glyph-name="yacute" unicode="&#xfd;" horiz-adv-x="510" 
d="M84 -214c-9.33301 0 -18.168 0.5 -26.501 1.5s-15.166 2.16699 -20.499 3.5v67c11.333 -2.66699 25.333 -4 42 -4c44 0 77.333 26 100 78l30 69l-204 500h82l162 -411l175 411h80l-250 -579c-14 -32 -29 -58 -45 -78s-34.167 -34.667 -54.5 -44s-43.833 -14 -70.5 -14z
M185.998 600l94 116h95l-124 -116h-65z" />
    <glyph glyph-name="thorn" unicode="&#xfe;" horiz-adv-x="591" 
d="M63 -204l-0.00195312 904.001l74 17v-269c42.667 40.667 96.334 61 161.001 61c47.333 0 90 -11.5 128 -34.5s68.167 -53.833 90.5 -92.5s33.5 -82.334 33.5 -131.001s-11.167 -92.5 -33.5 -131.5s-52.5 -70 -90.5 -93s-81 -34.5 -129 -34.5
c-29.333 0 -57.666 5 -84.999 15s-52.333 24.333 -75 43v-254h-74zM290.998 444.001c-31.333 0 -60.499 -6.16797 -87.499 -18.501s-49.167 -29.5 -66.5 -51.5v-248c17.333 -21.333 39.666 -38.166 66.999 -50.499s56.333 -18.5 87 -18.5c35.333 0 67 8.5 95 25.5
s50.167 40 66.5 69s24.5 61.833 24.5 98.5s-8.16699 69.667 -24.5 99s-38.5 52.5 -66.5 69.5s-59.667 25.5 -95 25.5z" />
    <glyph glyph-name="ydieresis" unicode="&#xff;" horiz-adv-x="510" 
d="M84 -214c-9.33301 0 -18.168 0.5 -26.501 1.5s-15.166 2.16699 -20.499 3.5v67c11.333 -2.66699 25.333 -4 42 -4c44 0 77.333 26 100 78l30 69l-204 500h82l162 -411l175 411h80l-250 -579c-14 -32 -29 -58 -45 -78s-34.167 -34.667 -54.5 -44s-43.833 -14 -70.5 -14z
M162.998 611c-14 0 -25.833 4.66699 -35.5 14s-14.5 20.666 -14.5 33.999s4.83301 24.666 14.5 33.999s21.5 14 35.5 14s25.833 -4.66699 35.5 -14s14.5 -20.666 14.5 -33.999s-4.83301 -24.666 -14.5 -33.999s-21.5 -14 -35.5 -14zM336.998 611
c-14 0 -25.833 4.66699 -35.5 14s-14.5 20.666 -14.5 33.999s4.83301 24.666 14.5 33.999s21.5 14 35.5 14s25.833 -4.66699 35.5 -14s14.5 -20.666 14.5 -33.999s-4.83301 -24.666 -14.5 -33.999s-21.5 -14 -35.5 -14z" />
    <glyph glyph-name="Amacron" unicode="&#x100;" horiz-adv-x="679" 
d="M4 0l290 700h93l288 -700h-84l-88 220h-330l-89 -220h-80zM200 286h276l-138 343zM198 820v53h284v-53h-284z" />
    <glyph glyph-name="amacron" unicode="&#x101;" horiz-adv-x="516" 
d="M221 -9c-36.667 0 -68.832 6.33301 -96.499 19s-49.334 30.334 -65.001 53.001s-23.5 49 -23.5 79c0 47.333 18 84.666 54 111.999s84.667 41 146 41c54 0 103 -11.333 147 -34v66c0 40 -11.333 70.167 -34 90.5s-55.667 30.5 -99 30.5c-24.667 0 -49.5 -3.5 -74.5 -10.5
s-52.5 -18.167 -82.5 -33.5l-28 57c36 17.333 69.333 30 100 38s61.334 12 92.001 12c63.333 0 112.166 -15 146.499 -45s51.5 -73 51.5 -129v-337h-72v49c-22.667 -19.333 -47.5 -33.833 -74.5 -43.5s-56.167 -14.5 -87.5 -14.5zM107.002 144
c0 -28 11.832 -50.833 35.499 -68.5s54.167 -26.5 91.5 -26.5c30 0 57.333 4.66699 82 14s47 24 67 44v94c-20.667 14 -42.667 24.167 -66 30.5s-49.666 9.5 -78.999 9.5c-40 0 -71.833 -8.83301 -95.5 -26.5s-35.5 -41.167 -35.5 -70.5zM107.001 621v53h284v-53h-284z" />
    <glyph glyph-name="Abreve" unicode="&#x102;" horiz-adv-x="679" 
d="M4 0l290 700h93l288 -700h-84l-88 220h-330l-89 -220h-80zM200 286h276l-138 343zM340 791c-40 0 -73.501 10.832 -100.501 32.499s-44.833 51.834 -53.5 90.501l52 13c14 -58 48 -87 102 -87c25.333 0 46.833 7.33301 64.5 22s30.167 36.334 37.5 65.001l52 -13
c-8.66699 -38.667 -26.667 -68.834 -54 -90.501s-60.666 -32.5 -99.999 -32.5z" />
    <glyph glyph-name="abreve" unicode="&#x103;" horiz-adv-x="516" 
d="M221 -9c-36.667 0 -68.832 6.33301 -96.499 19s-49.334 30.334 -65.001 53.001s-23.5 49 -23.5 79c0 47.333 18 84.666 54 111.999s84.667 41 146 41c54 0 103 -11.333 147 -34v66c0 40 -11.333 70.167 -34 90.5s-55.667 30.5 -99 30.5c-24.667 0 -49.5 -3.5 -74.5 -10.5
s-52.5 -18.167 -82.5 -33.5l-28 57c36 17.333 69.333 30 100 38s61.334 12 92.001 12c63.333 0 112.166 -15 146.499 -45s51.5 -73 51.5 -129v-337h-72v49c-22.667 -19.333 -47.5 -33.833 -74.5 -43.5s-56.167 -14.5 -87.5 -14.5zM107.002 144
c0 -28 11.832 -50.833 35.499 -68.5s54.167 -26.5 91.5 -26.5c30 0 57.333 4.66699 82 14s47 24 67 44v94c-20.667 14 -42.667 24.167 -66 30.5s-49.666 9.5 -78.999 9.5c-40 0 -71.833 -8.83301 -95.5 -26.5s-35.5 -41.167 -35.5 -70.5zM249.001 592
c-40 0 -73.501 10.832 -100.501 32.499s-44.833 51.834 -53.5 90.501l52 13c14 -58 48 -87 102 -87c25.333 0 46.833 7.33301 64.5 22s30.167 36.334 37.5 65.001l52 -13c-8.66699 -38.667 -26.667 -68.834 -54 -90.501s-60.666 -32.5 -99.999 -32.5z" />
    <glyph glyph-name="Aogonek" unicode="&#x104;" horiz-adv-x="679" 
d="M617 -221c-29.333 0 -53.001 7.83496 -71.001 23.502s-27 36.5 -27 62.5c0 23.333 7.83301 45.666 23.5 66.999s40.834 44 75.501 68h-27l-88 220h-330l-89 -220h-80l291 700h93l288 -700c-36.667 -22.667 -63.5 -44 -80.5 -64s-25.5 -39.667 -25.5 -59
c0 -16.667 5 -29.5 15 -38.5s24.333 -13.5 43 -13.5c8.66699 0 17.167 1.16699 25.5 3.5s15.833 5.83301 22.5 10.5l15 -39c-10.667 -6.66699 -22.167 -11.834 -34.5 -15.501s-25.5 -5.5 -39.5 -5.5zM199.999 286.002h276l-137 342z" />
    <glyph glyph-name="aogonek" unicode="&#x105;" horiz-adv-x="516" 
d="M397 -221c-29.333 0 -52.998 7.83496 -70.998 23.502s-27 36.5 -27 62.5c0 23.333 7.83301 45.666 23.5 66.999s40.834 44 75.501 68h-15v49c-22.667 -19.333 -47.5 -33.833 -74.5 -43.5s-56.167 -14.5 -87.5 -14.5c-36.667 0 -68.834 6.33301 -96.501 19
s-49.334 30.334 -65.001 53.001s-23.5 49 -23.5 79c0 47.333 18 84.666 54 111.999s84.667 41 146 41c54 0 103 -11.333 147 -34v66c0 40 -11.333 70.167 -34 90.5s-55.667 30.5 -99 30.5c-24.667 0 -49.5 -3.5 -74.5 -10.5s-52.5 -18.167 -82.5 -33.5l-28 57
c36 17.333 69.333 30 100 38s61.334 12 92.001 12c63.333 0 112.166 -15 146.499 -45s51.5 -73 51.5 -129v-337c-36.667 -22.667 -63.334 -44 -80.001 -64s-25 -39.667 -25 -59c0 -16.667 5 -29.5 15 -38.5s24.333 -13.5 43 -13.5c8.66699 0 17.167 1.16699 25.5 3.5
s15.833 5.83301 22.5 10.5l15 -39c-10.667 -6.66699 -22.167 -11.834 -34.5 -15.501s-25.5 -5.5 -39.5 -5.5zM234.002 49.002c30 0 57.332 4.66699 81.999 14s47 24 67 44v94c-20.667 14 -42.667 24.167 -66 30.5s-49.666 9.5 -78.999 9.5
c-40 0 -71.833 -8.83301 -95.5 -26.5s-35.5 -41.167 -35.5 -70.5c0 -28 11.833 -50.833 35.5 -68.5s54.167 -26.5 91.5 -26.5z" />
    <glyph glyph-name="Cacute" unicode="&#x106;" horiz-adv-x="722" 
d="M407 -11c-50.667 0 -97.999 9.16406 -141.999 27.4971s-82.667 44 -116 77s-59.166 71.333 -77.499 115s-27.5 90.834 -27.5 141.501s9.16699 97.834 27.5 141.501s44.166 82 77.499 115s72 58.667 116 77s91.333 27.5 142 27.5c36.667 0 71.834 -4.5 105.501 -13.5
s65 -22 94 -39s54.833 -37.833 77.5 -62.5l-51 -54c-27.333 31.333 -61 55.5 -101 72.5s-81.667 25.5 -125 25.5c-40.667 0 -78.334 -7.33301 -113.001 -22s-64.834 -35.167 -90.501 -61.5s-45.667 -57 -60 -92s-21.5 -73.167 -21.5 -114.5
c0 -40.667 7.16699 -78.667 21.5 -114s34.5 -66.166 60.5 -92.499s56.5 -46.833 91.5 -61.5s72.833 -22 113.5 -22c43.333 0 84.666 8.5 123.999 25.5s72.333 40.5 99 70.5l50 -52c-23.333 -24 -49.5 -44.667 -78.5 -62s-60.167 -30.5 -93.5 -39.5
s-67.666 -13.5 -102.999 -13.5zM339.001 798.997l94 116h95l-124 -116h-65z" />
    <glyph glyph-name="cacute" unicode="&#x107;" horiz-adv-x="513" 
d="M295 -9c-47.333 0 -90.3311 11.499 -128.998 34.499s-69.334 54.167 -92.001 93.5s-34 83.333 -34 132s11.333 92.5 34 131.5s53.334 70.167 92.001 93.5s81.667 35 129 35c36.667 0 72 -6.83301 106 -20.5s64 -33.167 90 -58.5l-47 -54
c-20 21.333 -42.833 37.5 -68.5 48.5s-52.167 16.5 -79.5 16.5c-34 0 -64.833 -8.5 -92.5 -25.5s-49.667 -40 -66 -69s-24.5 -61.5 -24.5 -97.5s8.16699 -68.667 24.5 -98s38.5 -52.5 66.5 -69.5s59 -25.5 93 -25.5c27.333 0 53.166 5.33301 77.499 16
s47.166 26.334 68.499 47.001l46 -50c-26.667 -25.333 -56.667 -45 -90 -59s-68 -21 -104 -21zM230.002 599.999l94 116h95l-124 -116h-65z" />
    <glyph glyph-name="Ccircumflex" unicode="&#x108;" horiz-adv-x="722" 
d="M407 -11c-50.667 0 -97.999 9.16406 -141.999 27.4971s-82.667 44 -116 77s-59.166 71.333 -77.499 115s-27.5 90.834 -27.5 141.501s9.16699 97.834 27.5 141.501s44.166 82 77.499 115s72 58.667 116 77s91.333 27.5 142 27.5c36.667 0 71.834 -4.5 105.501 -13.5
s65 -22 94 -39s54.833 -37.833 77.5 -62.5l-51 -54c-27.333 31.333 -61 55.5 -101 72.5s-81.667 25.5 -125 25.5c-40.667 0 -78.334 -7.33301 -113.001 -22s-64.834 -35.167 -90.501 -61.5s-45.667 -57 -60 -92s-21.5 -73.167 -21.5 -114.5
c0 -40.667 7.16699 -78.667 21.5 -114s34.5 -66.166 60.5 -92.499s56.5 -46.833 91.5 -61.5s72.833 -22 113.5 -22c43.333 0 84.666 8.5 123.999 25.5s72.333 40.5 99 70.5l50 -52c-23.333 -24 -49.5 -44.667 -78.5 -62s-60.167 -30.5 -93.5 -39.5
s-67.666 -13.5 -102.999 -13.5zM486.001 794.997l-84 80l-83 -80h-60l104 121h80l104 -121h-61z" />
    <glyph glyph-name="ccircumflex" unicode="&#x109;" horiz-adv-x="513" 
d="M295 -9c-47.333 0 -90.3311 11.499 -128.998 34.499s-69.334 54.167 -92.001 93.5s-34 83.333 -34 132s11.333 92.5 34 131.5s53.334 70.167 92.001 93.5s81.667 35 129 35c36.667 0 72 -6.83301 106 -20.5s64 -33.167 90 -58.5l-47 -54
c-20 21.333 -42.833 37.5 -68.5 48.5s-52.167 16.5 -79.5 16.5c-34 0 -64.833 -8.5 -92.5 -25.5s-49.667 -40 -66 -69s-24.5 -61.5 -24.5 -97.5s8.16699 -68.667 24.5 -98s38.5 -52.5 66.5 -69.5s59 -25.5 93 -25.5c27.333 0 53.166 5.33301 77.499 16
s47.166 26.334 68.499 47.001l46 -50c-26.667 -25.333 -56.667 -45 -90 -59s-68 -21 -104 -21zM377.002 595.999l-84 80l-83 -80h-60l104 121h80l104 -121h-61z" />
    <glyph glyph-name="Cdotaccent" unicode="&#x10a;" horiz-adv-x="722" 
d="M407 -11c-50.667 0 -97.999 9.16406 -141.999 27.4971s-82.667 44 -116 77s-59.166 71.333 -77.499 115s-27.5 90.834 -27.5 141.501s9.16699 97.834 27.5 141.501s44.166 82 77.499 115s72 58.667 116 77s91.333 27.5 142 27.5c36.667 0 71.834 -4.5 105.501 -13.5
s65 -22 94 -39s54.833 -37.833 77.5 -62.5l-51 -54c-27.333 31.333 -61 55.5 -101 72.5s-81.667 25.5 -125 25.5c-40.667 0 -78.334 -7.33301 -113.001 -22s-64.834 -35.167 -90.501 -61.5s-45.667 -57 -60 -92s-21.5 -73.167 -21.5 -114.5
c0 -40.667 7.16699 -78.667 21.5 -114s34.5 -66.166 60.5 -92.499s56.5 -46.833 91.5 -61.5s72.833 -22 113.5 -22c43.333 0 84.666 8.5 123.999 25.5s72.333 40.5 99 70.5l50 -52c-23.333 -24 -49.5 -44.667 -78.5 -62s-60.167 -30.5 -93.5 -39.5
s-67.666 -13.5 -102.999 -13.5zM403.001 800.997c-13.333 0 -24.833 4.83301 -34.5 14.5s-14.5 21.167 -14.5 34.5s4.83301 24.833 14.5 34.5s21.167 14.5 34.5 14.5s24.833 -4.83301 34.5 -14.5s14.5 -21.167 14.5 -34.5s-4.83301 -24.833 -14.5 -34.5
s-21.167 -14.5 -34.5 -14.5z" />
    <glyph glyph-name="cdotaccent" unicode="&#x10b;" horiz-adv-x="513" 
d="M295 -9c-47.333 0 -90.3311 11.499 -128.998 34.499s-69.334 54.167 -92.001 93.5s-34 83.333 -34 132s11.333 92.5 34 131.5s53.334 70.167 92.001 93.5s81.667 35 129 35c36.667 0 72 -6.83301 106 -20.5s64 -33.167 90 -58.5l-47 -54
c-20 21.333 -42.833 37.5 -68.5 48.5s-52.167 16.5 -79.5 16.5c-34 0 -64.833 -8.5 -92.5 -25.5s-49.667 -40 -66 -69s-24.5 -61.5 -24.5 -97.5s8.16699 -68.667 24.5 -98s38.5 -52.5 66.5 -69.5s59 -25.5 93 -25.5c27.333 0 53.166 5.33301 77.499 16
s47.166 26.334 68.499 47.001l46 -50c-26.667 -25.333 -56.667 -45 -90 -59s-68 -21 -104 -21zM294.002 601.999c-13.333 0 -24.833 4.83301 -34.5 14.5s-14.5 21.167 -14.5 34.5s4.83301 24.833 14.5 34.5s21.167 14.5 34.5 14.5s24.833 -4.83301 34.5 -14.5
s14.5 -21.167 14.5 -34.5s-4.83301 -24.833 -14.5 -34.5s-21.167 -14.5 -34.5 -14.5z" />
    <glyph glyph-name="Ccaron" unicode="&#x10c;" horiz-adv-x="722" 
d="M407 -11c-50.667 0 -97.999 9.16406 -141.999 27.4971s-82.667 44 -116 77s-59.166 71.333 -77.499 115s-27.5 90.834 -27.5 141.501s9.16699 97.834 27.5 141.501s44.166 82 77.499 115s72 58.667 116 77s91.333 27.5 142 27.5c36.667 0 71.834 -4.5 105.501 -13.5
s65 -22 94 -39s54.833 -37.833 77.5 -62.5l-51 -54c-27.333 31.333 -61 55.5 -101 72.5s-81.667 25.5 -125 25.5c-40.667 0 -78.334 -7.33301 -113.001 -22s-64.834 -35.167 -90.501 -61.5s-45.667 -57 -60 -92s-21.5 -73.167 -21.5 -114.5
c0 -40.667 7.16699 -78.667 21.5 -114s34.5 -66.166 60.5 -92.499s56.5 -46.833 91.5 -61.5s72.833 -22 113.5 -22c43.333 0 84.666 8.5 123.999 25.5s72.333 40.5 99 70.5l50 -52c-23.333 -24 -49.5 -44.667 -78.5 -62s-60.167 -30.5 -93.5 -39.5
s-67.666 -13.5 -102.999 -13.5zM321.001 916.997l82 -79l82 79h62l-104 -120h-80l-104 120h62z" />
    <glyph glyph-name="ccaron" unicode="&#x10d;" horiz-adv-x="513" 
d="M295 -9c-47.333 0 -90.3311 11.499 -128.998 34.499s-69.334 54.167 -92.001 93.5s-34 83.333 -34 132s11.333 92.5 34 131.5s53.334 70.167 92.001 93.5s81.667 35 129 35c36.667 0 72 -6.83301 106 -20.5s64 -33.167 90 -58.5l-47 -54
c-20 21.333 -42.833 37.5 -68.5 48.5s-52.167 16.5 -79.5 16.5c-34 0 -64.833 -8.5 -92.5 -25.5s-49.667 -40 -66 -69s-24.5 -61.5 -24.5 -97.5s8.16699 -68.667 24.5 -98s38.5 -52.5 66.5 -69.5s59 -25.5 93 -25.5c27.333 0 53.166 5.33301 77.499 16
s47.166 26.334 68.499 47.001l46 -50c-26.667 -25.333 -56.667 -45 -90 -59s-68 -21 -104 -21zM212.002 717.999l82 -79l82 79h62l-104 -120h-80l-104 120h62z" />
    <glyph glyph-name="Dcaron" unicode="&#x10e;" horiz-adv-x="720" 
d="M154 70h158c40.667 0 78.334 7 113.001 21s65 33.667 91 59s46.167 55 60.5 89s21.5 71 21.5 111s-7.16699 77 -21.5 111s-34.5 63.667 -60.5 89s-56.333 45 -91 59s-72.334 21 -113.001 21h-158v-560zM77 0v700h231c53.333 0 102.333 -8.66699 147 -26
s83.5 -41.666 116.5 -72.999s58.667 -68.333 77 -111s27.5 -89.334 27.5 -140.001s-9 -97.334 -27 -140.001s-43.5 -79.667 -76.5 -111s-72 -55.666 -117 -72.999s-94.167 -26 -147.5 -26h-231zM278 917l82 -79l82 79h62l-104 -120h-80l-104 120h62z" />
    <glyph glyph-name="dcaron" unicode="&#x10f;" horiz-adv-x="647" 
d="M292 -8c-46.667 0 -89.165 11.5 -127.498 34.5s-68.666 54 -90.999 93s-33.5 82.833 -33.5 131.5s11.167 92.334 33.5 131.001s52.666 69.5 90.999 92.5s81.166 34.5 128.499 34.5c29.333 0 57.666 -4.83301 84.999 -14.5s52.333 -23.834 75 -42.501v248l74 17v-717h-73
v53c-44 -40.667 -98 -61 -162 -61zM299.002 57c31.333 0 60.5 6.16699 87.5 18.5s49.167 29.5 66.5 51.5v248c-17.333 21.333 -39.5 38.166 -66.5 50.499s-56.167 18.5 -87.5 18.5c-34.667 0 -66.167 -8.33301 -94.5 -25s-50.666 -39.5 -66.999 -68.5
s-24.5 -61.833 -24.5 -98.5s8.16699 -69.667 24.5 -99s38.666 -52.666 66.999 -69.999s59.833 -26 94.5 -26zM595.002 508l5 192l76 11l-25 -203h-56z" />
    <glyph glyph-name="Dcroat" unicode="&#x110;" horiz-adv-x="744" 
d="M100 0v317h-87v66h87v317h231c53.333 0 102.333 -8.66699 147 -26s83.5 -41.666 116.5 -72.999s58.667 -68.333 77 -111s27.5 -89.334 27.5 -140.001s-9 -97.334 -27 -140.001s-43.5 -79.667 -76.5 -111s-72 -55.666 -117 -72.999s-94.167 -26 -147.5 -26h-231zM177 70
h158c40.667 0 78.334 7 113.001 21s65 33.667 91 59s46.167 55 60.5 89s21.5 71 21.5 111s-7.16699 77 -21.5 111s-34.5 63.667 -60.5 89s-56.333 45 -91 59s-72.334 21 -113.001 21h-158v-247h189v-66h-189v-247z" />
    <glyph glyph-name="dcroat" unicode="&#x111;" horiz-adv-x="589" 
d="M292 -8c-46.667 0 -89.165 11.5 -127.498 34.5s-68.666 54 -90.999 93s-33.5 82.833 -33.5 131.5s11.167 92.334 33.5 131.001s52.666 69.5 90.999 92.5s81.166 34.5 128.499 34.5c29.333 0 57.666 -4.83301 84.999 -14.5s52.333 -23.834 75 -42.501v134h-164v58h164v56
l74 17v-73h62v-58h-62v-586h-73v53c-44 -40.667 -98 -61 -162 -61zM299.002 57c31.333 0 60.5 6.16699 87.5 18.5s49.167 29.5 66.5 51.5v248c-17.333 21.333 -39.5 38.166 -66.5 50.499s-56.167 18.5 -87.5 18.5c-34.667 0 -66.167 -8.33301 -94.5 -25
s-50.666 -39.5 -66.999 -68.5s-24.5 -61.833 -24.5 -98.5s8.16699 -69.667 24.5 -99s38.666 -52.666 66.999 -69.999s59.833 -26 94.5 -26z" />
    <glyph glyph-name="Emacron" unicode="&#x112;" horiz-adv-x="616" 
d="M77 0v700h501v-68h-424v-245h277v-67h-277v-252h428v-68h-505zM198 820v53h284v-53h-284z" />
    <glyph glyph-name="emacron" unicode="&#x113;" horiz-adv-x="564" 
d="M298 -9c-48 0 -91.502 11.5 -130.502 34.5s-70 54.167 -93 93.5s-34.5 83.333 -34.5 132c0 48 11 91.5 33 130.5s51.667 70 89 93s79 34.5 125 34.5c44.667 0 84.834 -11.5 120.501 -34.5s64 -54 85 -93s31.5 -82.5 31.5 -130.5v-23h-411c4 -32.667 14.5 -62 31.5 -88
s39.167 -46.5 66.5 -61.5s57.333 -22.5 90 -22.5c26 0 51.333 4 76 12s45.334 19.333 62.001 34l46 -49c-28 -20.667 -57.167 -36.167 -87.5 -46.5s-63.5 -15.5 -99.5 -15.5zM114.998 287h335c-4 30 -13.833 56.833 -29.5 80.5s-35.167 42.334 -58.5 56.001
s-49 20.5 -77 20.5c-28.667 0 -55 -6.66699 -79 -20s-44 -31.833 -60 -55.5s-26.333 -50.834 -31 -81.501zM143.998 621v53h284v-53h-284z" />
    <glyph glyph-name="Ebreve" unicode="&#x114;" horiz-adv-x="616" 
d="M77 0v700h501v-68h-424v-245h277v-67h-277v-252h428v-68h-505zM340 791c-40 0 -73.501 10.832 -100.501 32.499s-44.833 51.834 -53.5 90.501l52 13c14 -58 48 -87 102 -87c25.333 0 46.833 7.33301 64.5 22s30.167 36.334 37.5 65.001l52 -13
c-8.66699 -38.667 -26.667 -68.834 -54 -90.501s-60.666 -32.5 -99.999 -32.5z" />
    <glyph glyph-name="ebreve" unicode="&#x115;" horiz-adv-x="564" 
d="M298 -9c-48 0 -91.502 11.5 -130.502 34.5s-70 54.167 -93 93.5s-34.5 83.333 -34.5 132c0 48 11 91.5 33 130.5s51.667 70 89 93s79 34.5 125 34.5c44.667 0 84.834 -11.5 120.501 -34.5s64 -54 85 -93s31.5 -82.5 31.5 -130.5v-23h-411c4 -32.667 14.5 -62 31.5 -88
s39.167 -46.5 66.5 -61.5s57.333 -22.5 90 -22.5c26 0 51.333 4 76 12s45.334 19.333 62.001 34l46 -49c-28 -20.667 -57.167 -36.167 -87.5 -46.5s-63.5 -15.5 -99.5 -15.5zM114.998 287h335c-4 30 -13.833 56.833 -29.5 80.5s-35.167 42.334 -58.5 56.001
s-49 20.5 -77 20.5c-28.667 0 -55 -6.66699 -79 -20s-44 -31.833 -60 -55.5s-26.333 -50.834 -31 -81.501zM285.998 592c-40 0 -73.501 10.832 -100.501 32.499s-44.833 51.834 -53.5 90.501l52 13c14 -58 48 -87 102 -87c25.333 0 46.833 7.33301 64.5 22
s30.167 36.334 37.5 65.001l52 -13c-8.66699 -38.667 -26.667 -68.834 -54 -90.501s-60.666 -32.5 -99.999 -32.5z" />
    <glyph glyph-name="Edotaccent" unicode="&#x116;" horiz-adv-x="616" 
d="M77 0v700h501v-68h-424v-245h277v-67h-277v-252h428v-68h-505zM340 801c-13.333 0 -24.833 4.83301 -34.5 14.5s-14.5 21.167 -14.5 34.5s4.83301 24.833 14.5 34.5s21.167 14.5 34.5 14.5s24.833 -4.83301 34.5 -14.5s14.5 -21.167 14.5 -34.5
s-4.83301 -24.833 -14.5 -34.5s-21.167 -14.5 -34.5 -14.5z" />
    <glyph glyph-name="edotaccent" unicode="&#x117;" horiz-adv-x="564" 
d="M298 -9c-48 0 -91.502 11.5 -130.502 34.5s-70 54.167 -93 93.5s-34.5 83.333 -34.5 132c0 48 11 91.5 33 130.5s51.667 70 89 93s79 34.5 125 34.5c44.667 0 84.834 -11.5 120.501 -34.5s64 -54 85 -93s31.5 -82.5 31.5 -130.5v-23h-411c4 -32.667 14.5 -62 31.5 -88
s39.167 -46.5 66.5 -61.5s57.333 -22.5 90 -22.5c26 0 51.333 4 76 12s45.334 19.333 62.001 34l46 -49c-28 -20.667 -57.167 -36.167 -87.5 -46.5s-63.5 -15.5 -99.5 -15.5zM114.998 287h335c-4 30 -13.833 56.833 -29.5 80.5s-35.167 42.334 -58.5 56.001
s-49 20.5 -77 20.5c-28.667 0 -55 -6.66699 -79 -20s-44 -31.833 -60 -55.5s-26.333 -50.834 -31 -81.501zM285.998 602c-13.333 0 -24.833 4.83301 -34.5 14.5s-14.5 21.167 -14.5 34.5s4.83301 24.833 14.5 34.5s21.167 14.5 34.5 14.5s24.833 -4.83301 34.5 -14.5
s14.5 -21.167 14.5 -34.5s-4.83301 -24.833 -14.5 -34.5s-21.167 -14.5 -34.5 -14.5z" />
    <glyph glyph-name="Eogonek" unicode="&#x118;" horiz-adv-x="616" 
d="M597 -200c-10.667 -6.66699 -22.168 -11.832 -34.501 -15.499s-25.5 -5.5 -39.5 -5.5c-29.333 0 -53 7.83301 -71 23.5s-27 36.5 -27 62.5c0 23.333 7.83301 45.666 23.5 66.999s40.834 44 75.501 68h-447v700h501v-68h-424v-245h277v-67h-277v-252h428v-68
c-36.667 -22.667 -63.5 -44 -80.5 -64s-25.5 -39.667 -25.5 -59c0 -16.667 5 -29.5 15 -38.5s24.333 -13.5 43 -13.5c8.66699 0 17.167 1.16699 25.5 3.5s15.833 5.83301 22.5 10.5z" />
    <glyph glyph-name="eogonek" unicode="&#x119;" horiz-adv-x="564" 
d="M315 -221c-29.333 0 -53.002 7.83496 -71.002 23.502s-27 36.5 -27 62.5c0 22 6.83301 43 20.5 63s35.5 41 65.5 63c-50 0 -94.833 11.5 -134.5 34.5s-71 54.167 -94 93.5s-34.5 83.333 -34.5 132c0 48 11 91.5 33 130.5s51.667 70 89 93s79 34.5 125 34.5
c44.667 0 84.834 -11.5 120.501 -34.5s64 -54 85 -93s31.5 -82.5 31.5 -130.5v-23h-411c4 -32.667 14.5 -62 31.5 -88s39.167 -46.5 66.5 -61.5s57.333 -22.5 90 -22.5c26 0 51.333 4 76 12s45.334 19.333 62.001 34l46 -49c-17.333 -13.333 -35.333 -24.333 -54 -33
s-38 -15.667 -58 -21c-36 -22.667 -62.5 -43.834 -79.5 -63.501s-25.5 -39.167 -25.5 -58.5c0 -16.667 5 -29.5 15 -38.5s24.333 -13.5 43 -13.5c8.66699 0 17.167 1.16699 25.5 3.5s15.833 5.83301 22.5 10.5l15 -39c-10.667 -6.66699 -22.167 -11.834 -34.5 -15.501
s-25.5 -5.5 -39.5 -5.5zM114.998 287.002h335c-4 30 -13.833 56.833 -29.5 80.5s-35.167 42.334 -58.5 56.001s-49 20.5 -77 20.5c-28.667 0 -55 -6.66699 -79 -20s-44 -31.833 -60 -55.5s-26.333 -50.834 -31 -81.501z" />
    <glyph glyph-name="Ecaron" unicode="&#x11a;" horiz-adv-x="616" 
d="M77 0v700h501v-68h-424v-245h277v-67h-277v-252h428v-68h-505zM258 917l82 -79l82 79h62l-104 -120h-80l-104 120h62z" />
    <glyph glyph-name="ecaron" unicode="&#x11b;" horiz-adv-x="564" 
d="M298 -9c-48 0 -91.502 11.5 -130.502 34.5s-70 54.167 -93 93.5s-34.5 83.333 -34.5 132c0 48 11 91.5 33 130.5s51.667 70 89 93s79 34.5 125 34.5c44.667 0 84.834 -11.5 120.501 -34.5s64 -54 85 -93s31.5 -82.5 31.5 -130.5v-23h-411c4 -32.667 14.5 -62 31.5 -88
s39.167 -46.5 66.5 -61.5s57.333 -22.5 90 -22.5c26 0 51.333 4 76 12s45.334 19.333 62.001 34l46 -49c-28 -20.667 -57.167 -36.167 -87.5 -46.5s-63.5 -15.5 -99.5 -15.5zM114.998 287h335c-4 30 -13.833 56.833 -29.5 80.5s-35.167 42.334 -58.5 56.001
s-49 20.5 -77 20.5c-28.667 0 -55 -6.66699 -79 -20s-44 -31.833 -60 -55.5s-26.333 -50.834 -31 -81.501zM203.998 718l82 -79l82 79h62l-104 -120h-80l-104 120h62z" />
    <glyph glyph-name="Gcircumflex" unicode="&#x11c;" horiz-adv-x="788" 
d="M406 -11c-50.667 0 -97.832 9.33203 -141.499 27.999s-82 44.5 -115 77.5s-58.833 71.333 -77.5 115s-28 90.5 -28 140.5s9.16699 96.833 27.5 140.5s44 82 77 115s71.333 58.833 115 77.5s90.834 28 141.501 28c54 0 105 -10 153 -30s89 -48.333 123 -85l-52 -53
c-26.667 30.667 -59.834 54.5 -99.501 71.5s-81.167 25.5 -124.5 25.5c-40 0 -77.167 -7.33301 -111.5 -22s-64.333 -35.167 -90 -61.5s-45.667 -57 -60 -92s-21.5 -73.167 -21.5 -114.5c0 -40.667 7.16699 -78.667 21.5 -114s34.333 -66.166 60 -92.499
s55.667 -46.833 90 -61.5s71.5 -22 111.5 -22c47.333 0 90.166 10.333 128.499 31s69.333 49 93 85s37.5 76.667 41.5 122h-251v68h329v-31c0 -48.667 -8.66699 -94 -26 -136s-41.333 -78.667 -72 -110s-66.667 -55.833 -108 -73.5s-86 -26.5 -134 -26.5zM487.002 794.999
l-84 80l-83 -80h-60l104 121h80l104 -121h-61z" />
    <glyph glyph-name="gcircumflex" unicode="&#x11d;" horiz-adv-x="586" 
d="M307 -214c-34.667 0 -69.001 4.5 -103.001 13.5s-65 21.833 -93 38.5l32 58c30 -16 57.833 -27.667 83.5 -35s51.5 -11 77.5 -11c47.333 0 83.333 11.333 108 34s37 56 37 100v70c-46 -38.667 -99 -58 -159 -58c-46 0 -88 11.333 -126 34s-68.167 53.5 -90.5 92.5
s-33.5 82.5 -33.5 130.5s11.167 91.5 33.5 130.5s52.5 69.833 90.5 92.5s80.667 34 128 34c28.667 0 56.5 -5 83.5 -15s51.833 -24.667 74.5 -44v50h73v-516c0 -64 -18.667 -113.167 -56 -147.5s-90.666 -51.5 -159.999 -51.5zM295.999 61c32 0 61.333 6 88 18
s48.334 29 65.001 51v246c-16.667 21.333 -38.5 38 -65.5 50s-56.167 18 -87.5 18c-34.667 0 -65.834 -8.33301 -93.501 -25s-49.5 -39.5 -65.5 -68.5s-24 -61.5 -24 -97.5s8.16699 -68.5 24.5 -97.5s38.333 -52 66 -69s58.5 -25.5 92.5 -25.5zM374.999 596l-84 80l-83 -80
h-60l104 121h80l104 -121h-61z" />
    <glyph glyph-name="Gbreve" unicode="&#x11e;" horiz-adv-x="788" 
d="M406 -11c-50.667 0 -97.832 9.33203 -141.499 27.999s-82 44.5 -115 77.5s-58.833 71.333 -77.5 115s-28 90.5 -28 140.5s9.16699 96.833 27.5 140.5s44 82 77 115s71.333 58.833 115 77.5s90.834 28 141.501 28c54 0 105 -10 153 -30s89 -48.333 123 -85l-52 -53
c-26.667 30.667 -59.834 54.5 -99.501 71.5s-81.167 25.5 -124.5 25.5c-40 0 -77.167 -7.33301 -111.5 -22s-64.333 -35.167 -90 -61.5s-45.667 -57 -60 -92s-21.5 -73.167 -21.5 -114.5c0 -40.667 7.16699 -78.667 21.5 -114s34.333 -66.166 60 -92.499
s55.667 -46.833 90 -61.5s71.5 -22 111.5 -22c47.333 0 90.166 10.333 128.499 31s69.333 49 93 85s37.5 76.667 41.5 122h-251v68h329v-31c0 -48.667 -8.66699 -94 -26 -136s-41.333 -78.667 -72 -110s-66.667 -55.833 -108 -73.5s-86 -26.5 -134 -26.5zM404.002 790.999
c-40 0 -73.501 10.832 -100.501 32.499s-44.833 51.834 -53.5 90.501l52 13c14 -58 48 -87 102 -87c25.333 0 46.833 7.33301 64.5 22s30.167 36.334 37.5 65.001l52 -13c-8.66699 -38.667 -26.667 -68.834 -54 -90.501s-60.666 -32.5 -99.999 -32.5z" />
    <glyph glyph-name="gbreve" unicode="&#x11f;" horiz-adv-x="586" 
d="M307 -214c-34.667 0 -69.001 4.5 -103.001 13.5s-65 21.833 -93 38.5l32 58c30 -16 57.833 -27.667 83.5 -35s51.5 -11 77.5 -11c47.333 0 83.333 11.333 108 34s37 56 37 100v70c-46 -38.667 -99 -58 -159 -58c-46 0 -88 11.333 -126 34s-68.167 53.5 -90.5 92.5
s-33.5 82.5 -33.5 130.5s11.167 91.5 33.5 130.5s52.5 69.833 90.5 92.5s80.667 34 128 34c28.667 0 56.5 -5 83.5 -15s51.833 -24.667 74.5 -44v50h73v-516c0 -64 -18.667 -113.167 -56 -147.5s-90.666 -51.5 -159.999 -51.5zM295.999 61c32 0 61.333 6 88 18
s48.334 29 65.001 51v246c-16.667 21.333 -38.5 38 -65.5 50s-56.167 18 -87.5 18c-34.667 0 -65.834 -8.33301 -93.501 -25s-49.5 -39.5 -65.5 -68.5s-24 -61.5 -24 -97.5s8.16699 -68.5 24.5 -97.5s38.333 -52 66 -69s58.5 -25.5 92.5 -25.5zM291.999 592
c-40 0 -73.501 10.832 -100.501 32.499s-44.833 51.834 -53.5 90.501l52 13c14 -58 48 -87 102 -87c25.333 0 46.833 7.33301 64.5 22s30.167 36.334 37.5 65.001l52 -13c-8.66699 -38.667 -26.667 -68.834 -54 -90.501s-60.666 -32.5 -99.999 -32.5z" />
    <glyph glyph-name="Gdotaccent" unicode="&#x120;" horiz-adv-x="788" 
d="M406 -11c-50.667 0 -97.832 9.33203 -141.499 27.999s-82 44.5 -115 77.5s-58.833 71.333 -77.5 115s-28 90.5 -28 140.5s9.16699 96.833 27.5 140.5s44 82 77 115s71.333 58.833 115 77.5s90.834 28 141.501 28c54 0 105 -10 153 -30s89 -48.333 123 -85l-52 -53
c-26.667 30.667 -59.834 54.5 -99.501 71.5s-81.167 25.5 -124.5 25.5c-40 0 -77.167 -7.33301 -111.5 -22s-64.333 -35.167 -90 -61.5s-45.667 -57 -60 -92s-21.5 -73.167 -21.5 -114.5c0 -40.667 7.16699 -78.667 21.5 -114s34.333 -66.166 60 -92.499
s55.667 -46.833 90 -61.5s71.5 -22 111.5 -22c47.333 0 90.166 10.333 128.499 31s69.333 49 93 85s37.5 76.667 41.5 122h-251v68h329v-31c0 -48.667 -8.66699 -94 -26 -136s-41.333 -78.667 -72 -110s-66.667 -55.833 -108 -73.5s-86 -26.5 -134 -26.5zM404.002 800.999
c-13.333 0 -24.833 4.83301 -34.5 14.5s-14.5 21.167 -14.5 34.5s4.83301 24.833 14.5 34.5s21.167 14.5 34.5 14.5s24.833 -4.83301 34.5 -14.5s14.5 -21.167 14.5 -34.5s-4.83301 -24.833 -14.5 -34.5s-21.167 -14.5 -34.5 -14.5z" />
    <glyph glyph-name="gdotaccent" unicode="&#x121;" horiz-adv-x="586" 
d="M307 -214c-34.667 0 -69.001 4.5 -103.001 13.5s-65 21.833 -93 38.5l32 58c30 -16 57.833 -27.667 83.5 -35s51.5 -11 77.5 -11c47.333 0 83.333 11.333 108 34s37 56 37 100v70c-46 -38.667 -99 -58 -159 -58c-46 0 -88 11.333 -126 34s-68.167 53.5 -90.5 92.5
s-33.5 82.5 -33.5 130.5s11.167 91.5 33.5 130.5s52.5 69.833 90.5 92.5s80.667 34 128 34c28.667 0 56.5 -5 83.5 -15s51.833 -24.667 74.5 -44v50h73v-516c0 -64 -18.667 -113.167 -56 -147.5s-90.666 -51.5 -159.999 -51.5zM295.999 61c32 0 61.333 6 88 18
s48.334 29 65.001 51v246c-16.667 21.333 -38.5 38 -65.5 50s-56.167 18 -87.5 18c-34.667 0 -65.834 -8.33301 -93.501 -25s-49.5 -39.5 -65.5 -68.5s-24 -61.5 -24 -97.5s8.16699 -68.5 24.5 -97.5s38.333 -52 66 -69s58.5 -25.5 92.5 -25.5zM291.999 602
c-13.333 0 -24.833 4.83301 -34.5 14.5s-14.5 21.167 -14.5 34.5s4.83301 24.833 14.5 34.5s21.167 14.5 34.5 14.5s24.833 -4.83301 34.5 -14.5s14.5 -21.167 14.5 -34.5s-4.83301 -24.833 -14.5 -34.5s-21.167 -14.5 -34.5 -14.5z" />
    <glyph glyph-name="Gcommaaccent" unicode="&#x122;" horiz-adv-x="788" 
d="M406 -11c-50.667 0 -97.832 9.33203 -141.499 27.999s-82 44.5 -115 77.5s-58.833 71.333 -77.5 115s-28 90.5 -28 140.5s9.16699 96.833 27.5 140.5s44 82 77 115s71.333 58.833 115 77.5s90.834 28 141.501 28c54 0 105 -10 153 -30s89 -48.333 123 -85l-52 -53
c-26.667 30.667 -59.834 54.5 -99.501 71.5s-81.167 25.5 -124.5 25.5c-40 0 -77.167 -7.33301 -111.5 -22s-64.333 -35.167 -90 -61.5s-45.667 -57 -60 -92s-21.5 -73.167 -21.5 -114.5c0 -40.667 7.16699 -78.667 21.5 -114s34.333 -66.166 60 -92.499
s55.667 -46.833 90 -61.5s71.5 -22 111.5 -22c47.333 0 90.166 10.333 128.499 31s69.333 49 93 85s37.5 76.667 41.5 122h-251v68h329v-31c0 -48.667 -8.66699 -94 -26 -136s-41.333 -78.667 -72 -110s-66.667 -55.833 -108 -73.5s-86 -26.5 -134 -26.5zM331.002 -264.001
l41 179h74l-60 -179h-55z" />
    <glyph glyph-name="gcommaaccent" unicode="&#x123;" horiz-adv-x="585" 
d="M307 -214c-34.667 0 -69.001 4.5 -103.001 13.5s-65 21.833 -93 38.5l32 58c30 -16 57.833 -27.667 83.5 -35s51.5 -11 77.5 -11c47.333 0 83.333 11.333 108 34s37 56 37 100v70c-46 -38.667 -99 -58 -159 -58c-46 0 -88 11.333 -126 34s-68.167 53.5 -90.5 92.5
s-33.5 82.5 -33.5 130.5s11.167 91.5 33.5 130.5s52.5 69.833 90.5 92.5s80.667 34 128 34c28.667 0 56.5 -5 83.5 -15s51.833 -24.667 74.5 -44v50h73v-516c0 -64 -18.667 -113.167 -56 -147.5s-90.666 -51.5 -159.999 -51.5zM295.999 61c32 0 61.333 6 88 18
s48.334 29 65.001 51v246c-16.667 21.333 -38.5 38 -65.5 50s-56.167 18 -87.5 18c-34.667 0 -65.834 -8.33301 -93.501 -25s-49.5 -39.5 -65.5 -68.5s-24 -61.5 -24 -97.5s8.16699 -68.5 24.5 -97.5s38.333 -52 66 -69s58.5 -25.5 92.5 -25.5zM366.999 787l-41 -179h-74
l60 179h55z" />
    <glyph glyph-name="Hcircumflex" unicode="&#x124;" horiz-adv-x="715" 
d="M77 0v700h77v-313h407v313h77v-700h-77v318h-407v-318h-77zM440 795l-84 80l-83 -80h-60l104 121h80l104 -121h-61z" />
    <glyph glyph-name="hcircumflex" unicode="&#x125;" horiz-adv-x="549" 
d="M63 0l-0.000976562 699.999l74 17v-275c39.333 46 92 69 158 69c38 0 71.5 -8.16699 100.5 -24.5s51.667 -39 68 -68s24.5 -62.833 24.5 -101.5v-317h-73v302c0 44.667 -12.5 79.834 -37.5 105.501s-59.167 38.5 -102.5 38.5c-30 0 -56.667 -6.66699 -80 -20
s-42.666 -32.333 -57.999 -57v-369h-74zM181.999 794.999l-84 80l-83 -80h-60l104 121h80l104 -121h-61z" />
    <glyph glyph-name="Hbar" unicode="&#x126;" horiz-adv-x="727" 
d="M83 0v521h-68v61h68v118h77v-118h407v118h77v-118h68v-61h-68v-521h-77v318h-407v-318h-77zM160 386h407v135h-407v-135z" />
    <glyph glyph-name="hbar" unicode="&#x127;" horiz-adv-x="549" 
d="M63 0l-0.000976562 585.999h-63v58h63v56l74 17v-73h163v-58h-163v-144c39.333 46 92 69 158 69c38 0 71.5 -8.16699 100.5 -24.5s51.667 -39 68 -68s24.5 -62.833 24.5 -101.5v-317h-73v302c0 44.667 -12.5 79.834 -37.5 105.501s-59.167 38.5 -102.5 38.5
c-30 0 -56.667 -6.66699 -80 -20s-42.666 -32.333 -57.999 -57v-369h-74z" />
    <glyph glyph-name="Itilde" unicode="&#x128;" horiz-adv-x="231" 
d="M77 0v700h77v-700h-77zM0 794l-52 10c14.667 66.667 46 100 94 100c18 0 35.5 -4.5 52.5 -13.5s33.167 -18.167 48.5 -27.5s30 -14 44 -14c11.333 0 20.5 4.33301 27.5 13s12.833 23.334 17.5 44.001l51 -10c-6.66699 -33.333 -18 -58.333 -34 -75s-36 -25 -60 -25
c-17.333 0 -34.5 4.66699 -51.5 14l-49 27.5c-15.667 9 -30.5 13.5 -44.5 13.5c-12 0 -21.333 -4.33301 -28 -13s-12 -23.334 -16 -44.001z" />
    <glyph glyph-name="itilde" unicode="&#x129;" horiz-adv-x="200" 
d="M63 0v501h74v-501h-74zM-16 595l-52 10c14.667 66.667 46 100 94 100c18 0 35.5 -4.5 52.5 -13.5s33.167 -18.167 48.5 -27.5s30 -14 44 -14c11.333 0 20.5 4.33301 27.5 13s12.833 23.334 17.5 44.001l51 -10c-6.66699 -33.333 -18 -58.333 -34 -75s-36 -25 -60 -25
c-17.333 0 -34.5 4.66699 -51.5 14l-49 27.5c-15.667 9 -30.5 13.5 -44.5 13.5c-12 0 -21.333 -4.33301 -28 -13s-12 -23.334 -16 -44.001z" />
    <glyph glyph-name="Imacron" unicode="&#x12a;" horiz-adv-x="231" 
d="M77 0v700h77v-700h-77zM-26 820v53h284v-53h-284z" />
    <glyph glyph-name="imacron" unicode="&#x12b;" horiz-adv-x="200" 
d="M63 0v501h74v-501h-74zM-42 621v53h284v-53h-284z" />
    <glyph glyph-name="Ibreve" unicode="&#x12c;" horiz-adv-x="231" 
d="M77 0v700h77v-700h-77zM116 791c-40 0 -73.501 10.832 -100.501 32.499s-44.833 51.834 -53.5 90.501l52 13c14 -58 48 -87 102 -87c25.333 0 46.833 7.33301 64.5 22s30.167 36.334 37.5 65.001l52 -13c-8.66699 -38.667 -26.667 -68.834 -54 -90.501
s-60.666 -32.5 -99.999 -32.5z" />
    <glyph glyph-name="ibreve" unicode="&#x12d;" horiz-adv-x="200" 
d="M63 0v501h74v-501h-74zM100 592c-40 0 -73.501 10.832 -100.501 32.499s-44.833 51.834 -53.5 90.501l52 13c14 -58 48 -87 102 -87c25.333 0 46.833 7.33301 64.5 22s30.167 36.334 37.5 65.001l52 -13c-8.66699 -38.667 -26.667 -68.834 -54 -90.501
s-60.666 -32.5 -99.999 -32.5z" />
    <glyph glyph-name="Iogonek" unicode="&#x12e;" horiz-adv-x="231" 
d="M95 -221c-29.333 0 -53.001 7.83496 -71.001 23.502s-27 36.5 -27 62.5c0 23.333 7.83301 45.666 23.5 66.999s40.834 44 75.501 68h-19v700h77v-700c-36.667 -22.667 -63.5 -44 -80.5 -64s-25.5 -39.667 -25.5 -59c0 -16.667 5 -29.5 15 -38.5s24.333 -13.5 43 -13.5
c8.66699 0 17.167 1.16699 25.5 3.5s15.833 5.83301 22.5 10.5l15 -39c-10.667 -6.66699 -22.167 -11.834 -34.5 -15.501s-25.5 -5.5 -39.5 -5.5z" />
    <glyph glyph-name="iogonek" unicode="&#x12f;" horiz-adv-x="200" 
d="M100 597c-13.333 0 -25 5 -35 15s-15 21.667 -15 35c0 14 5 25.833 15 35.5s21.667 14.5 35 14.5c14 0 25.833 -4.83301 35.5 -14.5s14.5 -21.5 14.5 -35.5c0 -13.333 -4.83301 -25 -14.5 -35s-21.5 -15 -35.5 -15zM78 -221c-29.333 0 -53.001 7.83496 -71.001 23.502
s-27 36.5 -27 62.5c0 23.333 7.83301 45.666 23.5 66.999s40.834 44 75.501 68h-16v501h74v-501c-36.667 -22.667 -63.5 -44 -80.5 -64s-25.5 -39.667 -25.5 -59c0 -16.667 5 -29.5 15 -38.5s24.333 -13.5 43 -13.5c8.66699 0 17.167 1.16699 25.5 3.5
s15.833 5.83301 22.5 10.5l15 -39c-10.667 -6.66699 -22.167 -11.834 -34.5 -15.501s-25.5 -5.5 -39.5 -5.5z" />
    <glyph glyph-name="Idotaccent" unicode="&#x130;" horiz-adv-x="231" 
d="M77 0v700h77v-700h-77zM116 801c-13.333 0 -24.833 4.83301 -34.5 14.5s-14.5 21.167 -14.5 34.5s4.83301 24.833 14.5 34.5s21.167 14.5 34.5 14.5s24.833 -4.83301 34.5 -14.5s14.5 -21.167 14.5 -34.5s-4.83301 -24.833 -14.5 -34.5s-21.167 -14.5 -34.5 -14.5z" />
    <glyph glyph-name="dotlessi" unicode="&#x131;" horiz-adv-x="200" 
d="M63 0v501h74v-501h-74z" />
    <glyph glyph-name="IJ" unicode="&#x132;" horiz-adv-x="831" 
d="M77 0v700h77v-700h-77zM502 -11c-60 0 -112.165 15.666 -156.498 46.999s-76.833 75.333 -97.5 132l70 29c18 -46 42.5 -80.333 73.5 -103s68.167 -34 111.5 -34c57.333 0 103 18.5 137 55.5s51 86.833 51 149.5v435h77v-436c0 -56 -10.833 -104.667 -32.5 -146
s-52.334 -73.166 -92.001 -95.499s-86.834 -33.5 -141.501 -33.5z" />
    <glyph glyph-name="ij" unicode="&#x133;" horiz-adv-x="396" 
d="M63 0v501h74v-501h-74zM100 597c-13.333 0 -25 5 -35 15s-15 22 -15 36c0 13.333 5 24.833 15 34.5s21.667 14.5 35 14.5c14 0 25.833 -4.83301 35.5 -14.5s14.5 -21.5 14.5 -35.5c0 -13.333 -4.83301 -25 -14.5 -35s-21.5 -15 -35.5 -15zM298 597
c-13.333 0 -25 5 -35 15s-15 21.667 -15 35c0 14 5 25.833 15 35.5s21.667 14.5 35 14.5c14 0 25.833 -4.83301 35.5 -14.5s14.5 -21.5 14.5 -35.5c0 -13.333 -4.83301 -25 -14.5 -35s-21.5 -15 -35.5 -15zM206 -214c-9.33301 0 -18.001 0.668945 -26.001 2.00195
s-14.667 2.66602 -20 3.99902v62c10.667 -2.66699 23 -4 37 -4c23.333 0 39.833 5.33301 49.5 16s14.5 28 14.5 52v583h74v-589c0 -40.667 -11.167 -71.834 -33.5 -93.501s-54.166 -32.5 -95.499 -32.5z" />
    <glyph glyph-name="Jcircumflex" unicode="&#x134;" 
d="M271 -11c-60 0 -112.165 15.666 -156.498 46.999s-76.833 75.333 -97.5 132l70 29c18 -46 42.5 -80.333 73.5 -103s68.167 -34 111.5 -34c57.333 0 103 18.5 137 55.5s51 86.833 51 149.5v435h77v-436c0 -56 -10.833 -104.667 -32.5 -146
s-52.334 -73.166 -92.001 -95.499s-86.834 -33.5 -141.501 -33.5zM582.002 794.999l-84 80l-83 -80h-60l104 121h80l104 -121h-61z" />
    <glyph glyph-name="jcircumflex" unicode="&#x135;" horiz-adv-x="200" 
d="M9 -214c-8.66699 0 -16.834 0.666992 -24.501 2l-22.5 4v62c11.333 -2.66699 24 -4 38 -4c22.667 0 38.834 5.33301 48.501 16s14.5 28 14.5 52v583h74v-590c0 -39.333 -11 -70 -33 -92s-53.667 -33 -95 -33zM183 596l-84 80l-83 -80h-60l104 121h80l104 -121h-61z" />
    <glyph glyph-name="Kcommaaccent" unicode="&#x136;" horiz-adv-x="617" 
d="M77 0v700h77v-332l362 332h101l-380 -343l388 -357h-108l-363 336v-336h-77zM252 -264l41 179h74l-60 -179h-55z" />
    <glyph glyph-name="kcommaaccent" unicode="&#x137;" horiz-adv-x="494" 
d="M63 0v700l74 17v-442l262 226h90l-275 -238l288 -263h-101l-264 240v-240h-74zM170 -264l41 179h74l-60 -179h-55z" />
    <glyph glyph-name="kgreenlandic" unicode="&#x138;" horiz-adv-x="494" 
d="M63 0v501h74v-226l262 226h90l-275 -238l288 -263h-101l-264 240v-240h-74z" />
    <glyph glyph-name="Lacute" unicode="&#x139;" horiz-adv-x="604" 
d="M77 0v700h77v-631h417v-69h-494zM51 799l94 116h95l-124 -116h-65z" />
    <glyph glyph-name="lacute" unicode="&#x13a;" horiz-adv-x="200" 
d="M63 0v700l74 17v-717h-74zM36 799l94 116h95l-124 -116h-65z" />
    <glyph glyph-name="Lcommaaccent" unicode="&#x13b;" horiz-adv-x="604" 
d="M77 0v700h77v-631h417v-69h-494zM265 -264l41 179h74l-60 -179h-55z" />
    <glyph glyph-name="lcommaaccent" unicode="&#x13c;" horiz-adv-x="200" 
d="M63 0v700l74 17v-717h-74zM22 -264l41 179h74l-60 -179h-55z" />
    <glyph glyph-name="Lcaron" unicode="&#x13d;" horiz-adv-x="599" 
d="M77 0v700h77v-631h417v-69h-494zM399 508l5 192l76 11l-25 -203h-56z" />
    <glyph glyph-name="lcaron" unicode="&#x13e;" horiz-adv-x="256" 
d="M63 0v700l74 17v-717h-74zM204 508l5 192l76 11l-25 -203h-56z" />
    <glyph glyph-name="Ldot" unicode="&#x13f;" horiz-adv-x="599" 
d="M77 0v700h77v-631h417v-69h-494zM409 306c-13.333 0 -24.833 4.83301 -34.5 14.5s-14.5 21.167 -14.5 34.5s4.83301 24.833 14.5 34.5s21.167 14.5 34.5 14.5s24.833 -4.83301 34.5 -14.5s14.5 -21.167 14.5 -34.5s-4.83301 -24.833 -14.5 -34.5
s-21.167 -14.5 -34.5 -14.5z" />
    <glyph glyph-name="ldot" unicode="&#x140;" horiz-adv-x="295" 
d="M63 0v700l74 17v-717h-74zM250 303c-13.333 0 -24.833 4.83301 -34.5 14.5s-14.5 21.167 -14.5 34.5s4.83301 24.833 14.5 34.5s21.167 14.5 34.5 14.5s24.833 -4.83301 34.5 -14.5s14.5 -21.167 14.5 -34.5s-4.83301 -24.833 -14.5 -34.5s-21.167 -14.5 -34.5 -14.5z
" />
    <glyph glyph-name="Lslash" unicode="&#x141;" horiz-adv-x="613" 
d="M91 0v232l-80 -61v74l80 61v394h77v-336l200 151v-74l-200 -151v-221h417v-69h-494z" />
    <glyph glyph-name="lslash" unicode="&#x142;" horiz-adv-x="240" 
d="M84 0v315l-75 -61v74l75 61v311l74 17v-268l75 61v-75l-75 -61v-374h-74z" />
    <glyph glyph-name="Nacute" unicode="&#x143;" horiz-adv-x="725" 
d="M77 0v700h77l421 -568v568h73v-700h-68l-430 583v-583h-73zM298 799l94 116h95l-124 -116h-65z" />
    <glyph glyph-name="nacute" unicode="&#x144;" horiz-adv-x="549" 
d="M63 0l-0.000976562 500.999h74v-59c39.333 46 92 69 158 69c38 0 71.5 -8.16699 100.5 -24.5s51.667 -39 68 -68s24.5 -62.833 24.5 -101.5v-317h-73v302c0 44.667 -12.5 79.834 -37.5 105.501s-59.167 38.5 -102.5 38.5c-30 0 -56.667 -6.66699 -80 -20
s-42.666 -32.333 -57.999 -57v-369h-74zM211.999 599.999l94 116h95l-124 -116h-65z" />
    <glyph glyph-name="Ncommaaccent" unicode="&#x145;" horiz-adv-x="725" 
d="M77 0v700h77l421 -568v568h73v-700h-68l-430 583v-583h-73zM284 -264l41 179h74l-60 -179h-55z" />
    <glyph glyph-name="ncommaaccent" unicode="&#x146;" horiz-adv-x="549" 
d="M63 0l-0.000976562 500.999h74v-59c39.333 46 92 69 158 69c38 0 71.5 -8.16699 100.5 -24.5s51.667 -39 68 -68s24.5 -62.833 24.5 -101.5v-317h-73v302c0 44.667 -12.5 79.834 -37.5 105.501s-59.167 38.5 -102.5 38.5c-30 0 -56.667 -6.66699 -80 -20
s-42.666 -32.333 -57.999 -57v-369h-74zM197.999 -264.001l41 179h74l-60 -179h-55z" />
    <glyph glyph-name="Ncaron" unicode="&#x147;" horiz-adv-x="725" 
d="M77 0v700h77l421 -568v568h73v-700h-68l-430 583v-583h-73zM280 917l82 -79l82 79h62l-104 -120h-80l-104 120h62z" />
    <glyph glyph-name="ncaron" unicode="&#x148;" horiz-adv-x="549" 
d="M63 0l-0.000976562 500.999h74v-59c39.333 46 92 69 158 69c38 0 71.5 -8.16699 100.5 -24.5s51.667 -39 68 -68s24.5 -62.833 24.5 -101.5v-317h-73v302c0 44.667 -12.5 79.834 -37.5 105.501s-59.167 38.5 -102.5 38.5c-30 0 -56.667 -6.66699 -80 -20
s-42.666 -32.333 -57.999 -57v-369h-74zM193.999 717.999l82 -79l82 79h62l-104 -120h-80l-104 120h62z" />
    <glyph glyph-name="Eng" unicode="&#x14a;" horiz-adv-x="725" 
d="M520 -208c-6.66699 0 -14.833 0.667969 -24.5 2.00098s-17.167 2.66602 -22.5 3.99902v62c11.333 -2.66699 24 -4 38 -4c22.667 0 39 5.33301 49 16s15 28 15 52v76l-425 577v-577h-73v700h72l426 -576v576h73v-783c0 -40 -11 -70.833 -33 -92.5s-53.667 -32.5 -95 -32.5
z" />
    <glyph glyph-name="eng" unicode="&#x14b;" horiz-adv-x="549" 
d="M360 -208c-8 0 -16.001 0.666016 -24.001 1.99902l-23 4v62c11.333 -2.66699 24.333 -4 39 -4c22 0 38 5.33301 48 16s15 28 15 52v378c0 44.667 -12.5 79.834 -37.5 105.501s-59.167 38.5 -102.5 38.5c-30 0 -56.667 -6.66699 -80 -20s-42.666 -32.333 -57.999 -57v-369
h-74v501h74v-59c39.333 46 92 69 158 69c38 0 71.5 -8.16699 100.5 -24.5s51.667 -39 68 -68s24.5 -62.833 24.5 -101.5v-400c0 -39.333 -11 -70 -33 -92s-53.667 -33 -95 -33z" />
    <glyph glyph-name="Omacron" unicode="&#x14c;" horiz-adv-x="809" 
d="M405 -11c-50.667 0 -97.834 9.16699 -141.501 27.5s-82 44 -115 77s-58.667 71.333 -77 115s-27.5 90.834 -27.5 141.501s9.16699 97.834 27.5 141.501s44 82 77 115s71.333 58.667 115 77s90.834 27.5 141.501 27.5c50 0 96.833 -9.16699 140.5 -27.5s82 -44 115 -77
s58.667 -71.333 77 -115s27.5 -90.834 27.5 -141.501s-9.16699 -97.834 -27.5 -141.501s-44 -82 -77 -115s-71.333 -58.667 -115 -77s-90.5 -27.5 -140.5 -27.5zM405 60c40 0 77 7.33203 111 21.999s63.833 35.167 89.5 61.5s45.667 57.166 60 92.499s21.5 73.333 21.5 114
c0 41.333 -7.16699 79.5 -21.5 114.5s-34.333 65.667 -60 92s-55.5 46.833 -89.5 61.5s-71 22 -111 22s-77.167 -7.33301 -111.5 -22s-64.333 -35.167 -90 -61.5s-45.667 -57 -60 -92s-21.5 -72.833 -21.5 -113.5c0 -41.333 7.16699 -79.666 21.5 -114.999
s34.333 -66.166 60 -92.499s55.667 -46.833 90 -61.5s71.5 -22 111.5 -22zM263 819.999v53h284v-53h-284z" />
    <glyph glyph-name="omacron" unicode="&#x14d;" horiz-adv-x="592" 
d="M296 -10c-47.333 0 -90.5 11.5 -129.5 34.5s-69.833 54.167 -92.5 93.5s-34 83.333 -34 132s11.333 92.667 34 132s53.5 70.5 92.5 93.5s82.167 34.5 129.5 34.5c48 0 91.333 -11.5 130 -34.5s69.334 -54.167 92.001 -93.5s34 -83.333 34 -132s-11.333 -92.667 -34 -132
s-53.334 -70.5 -92.001 -93.5s-82 -34.5 -130 -34.5zM296 56c34 0 64.833 8.66699 92.5 26s49.667 40.666 66 69.999s24.5 62 24.5 98c0 36.667 -8.16699 69.5 -24.5 98.5s-38.333 52.167 -66 69.5s-58.5 26 -92.5 26s-64.833 -8.66699 -92.5 -26s-49.667 -40.5 -66 -69.5
s-24.5 -61.833 -24.5 -98.5c0 -36 8.16699 -68.667 24.5 -98s38.333 -52.666 66 -69.999s58.5 -26 92.5 -26zM154 621v53h284v-53h-284z" />
    <glyph glyph-name="Obreve" unicode="&#x14e;" horiz-adv-x="809" 
d="M405 -11c-50.667 0 -97.834 9.16699 -141.501 27.5s-82 44 -115 77s-58.667 71.333 -77 115s-27.5 90.834 -27.5 141.501s9.16699 97.834 27.5 141.501s44 82 77 115s71.333 58.667 115 77s90.834 27.5 141.501 27.5c50 0 96.833 -9.16699 140.5 -27.5s82 -44 115 -77
s58.667 -71.333 77 -115s27.5 -90.834 27.5 -141.501s-9.16699 -97.834 -27.5 -141.501s-44 -82 -77 -115s-71.333 -58.667 -115 -77s-90.5 -27.5 -140.5 -27.5zM405 60c40 0 77 7.33203 111 21.999s63.833 35.167 89.5 61.5s45.667 57.166 60 92.499s21.5 73.333 21.5 114
c0 41.333 -7.16699 79.5 -21.5 114.5s-34.333 65.667 -60 92s-55.5 46.833 -89.5 61.5s-71 22 -111 22s-77.167 -7.33301 -111.5 -22s-64.333 -35.167 -90 -61.5s-45.667 -57 -60 -92s-21.5 -72.833 -21.5 -113.5c0 -41.333 7.16699 -79.666 21.5 -114.999
s34.333 -66.166 60 -92.499s55.667 -46.833 90 -61.5s71.5 -22 111.5 -22zM405 790.999c-40 0 -73.501 10.832 -100.501 32.499s-44.833 51.834 -53.5 90.501l52 13c14 -58 48 -87 102 -87c25.333 0 46.833 7.33301 64.5 22s30.167 36.334 37.5 65.001l52 -13
c-8.66699 -38.667 -26.667 -68.834 -54 -90.501s-60.666 -32.5 -99.999 -32.5z" />
    <glyph glyph-name="obreve" unicode="&#x14f;" horiz-adv-x="592" 
d="M296 -10c-47.333 0 -90.5 11.5 -129.5 34.5s-69.833 54.167 -92.5 93.5s-34 83.333 -34 132s11.333 92.667 34 132s53.5 70.5 92.5 93.5s82.167 34.5 129.5 34.5c48 0 91.333 -11.5 130 -34.5s69.334 -54.167 92.001 -93.5s34 -83.333 34 -132s-11.333 -92.667 -34 -132
s-53.334 -70.5 -92.001 -93.5s-82 -34.5 -130 -34.5zM296 56c34 0 64.833 8.66699 92.5 26s49.667 40.666 66 69.999s24.5 62 24.5 98c0 36.667 -8.16699 69.5 -24.5 98.5s-38.333 52.167 -66 69.5s-58.5 26 -92.5 26s-64.833 -8.66699 -92.5 -26s-49.667 -40.5 -66 -69.5
s-24.5 -61.833 -24.5 -98.5c0 -36 8.16699 -68.667 24.5 -98s38.333 -52.666 66 -69.999s58.5 -26 92.5 -26zM296 592c-40 0 -73.501 10.832 -100.501 32.499s-44.833 51.834 -53.5 90.501l52 13c14 -58 48 -87 102 -87c25.333 0 46.833 7.33301 64.5 22
s30.167 36.334 37.5 65.001l52 -13c-8.66699 -38.667 -26.667 -68.834 -54 -90.501s-60.666 -32.5 -99.999 -32.5z" />
    <glyph glyph-name="Ohungarumlaut" unicode="&#x150;" horiz-adv-x="809" 
d="M405 -11c-50.667 0 -97.834 9.16699 -141.501 27.5s-82 44 -115 77s-58.667 71.333 -77 115s-27.5 90.834 -27.5 141.501s9.16699 97.834 27.5 141.501s44 82 77 115s71.333 58.667 115 77s90.834 27.5 141.501 27.5c50 0 96.833 -9.16699 140.5 -27.5s82 -44 115 -77
s58.667 -71.333 77 -115s27.5 -90.834 27.5 -141.501s-9.16699 -97.834 -27.5 -141.501s-44 -82 -77 -115s-71.333 -58.667 -115 -77s-90.5 -27.5 -140.5 -27.5zM405 60c40 0 77 7.33203 111 21.999s63.833 35.167 89.5 61.5s45.667 57.166 60 92.499s21.5 73.333 21.5 114
c0 41.333 -7.16699 79.5 -21.5 114.5s-34.333 65.667 -60 92s-55.5 46.833 -89.5 61.5s-71 22 -111 22s-77.167 -7.33301 -111.5 -22s-64.333 -35.167 -90 -61.5s-45.667 -57 -60 -92s-21.5 -72.833 -21.5 -113.5c0 -41.333 7.16699 -79.666 21.5 -114.999
s34.333 -66.166 60 -92.499s55.667 -46.833 90 -61.5s71.5 -22 111.5 -22zM288 801.999l104 113h86l-127 -113h-63zM453 801.999l104 113h87l-130 -113h-61z" />
    <glyph glyph-name="ohungarumlaut" unicode="&#x151;" horiz-adv-x="592" 
d="M296 -10c-47.333 0 -90.5 11.5 -129.5 34.5s-69.833 54.167 -92.5 93.5s-34 83.333 -34 132s11.333 92.667 34 132s53.5 70.5 92.5 93.5s82.167 34.5 129.5 34.5c48 0 91.333 -11.5 130 -34.5s69.334 -54.167 92.001 -93.5s34 -83.333 34 -132s-11.333 -92.667 -34 -132
s-53.334 -70.5 -92.001 -93.5s-82 -34.5 -130 -34.5zM296 56c34 0 64.833 8.66699 92.5 26s49.667 40.666 66 69.999s24.5 62 24.5 98c0 36.667 -8.16699 69.5 -24.5 98.5s-38.333 52.167 -66 69.5s-58.5 26 -92.5 26s-64.833 -8.66699 -92.5 -26s-49.667 -40.5 -66 -69.5
s-24.5 -61.833 -24.5 -98.5c0 -36 8.16699 -68.667 24.5 -98s38.333 -52.666 66 -69.999s58.5 -26 92.5 -26zM179 603l104 113h86l-127 -113h-63zM344 603l104 113h87l-130 -113h-61z" />
    <glyph glyph-name="OE" unicode="&#x152;" horiz-adv-x="1085" 
d="M394 0c-48.667 0 -94.167 9 -136.5 27s-79.333 43 -111 75s-56.5 69.167 -74.5 111.5s-27 87.833 -27 136.5s9 94.167 27 136.5s42.833 79.5 74.5 111.5s68.667 57 111 75s87.833 27 136.5 27h656v-68h-455c40.667 -26.667 73.834 -61.5 99.501 -104.5
s41.167 -89.833 46.5 -140.5h181v-67h-180c-4.66699 -52 -19.834 -100 -45.501 -144s-59.167 -80 -100.5 -108h454v-68h-656zM394 70c38 0 73.5 7.16699 106.5 21.5s61.833 34.166 86.5 59.499s43.834 55 57.501 89s20.5 70.667 20.5 110s-6.83301 76 -20.5 110
s-32.834 63.667 -57.501 89s-53.5 45.166 -86.5 59.499s-68.5 21.5 -106.5 21.5s-73.333 -7.16699 -106 -21.5s-61.5 -34.166 -86.5 -59.499s-44.333 -55 -58 -89s-20.5 -70.667 -20.5 -110s6.83301 -76 20.5 -110s33 -63.667 58 -89s53.833 -45.166 86.5 -59.499
s68 -21.5 106 -21.5z" />
    <glyph glyph-name="oe" unicode="&#x153;" horiz-adv-x="1003" 
d="M296 -10c-47.333 0 -90.5 11.4971 -129.5 34.4971s-69.833 54.333 -92.5 94s-34 83.834 -34 132.501s11.333 92.667 34 132s53.5 70.5 92.5 93.5s82.167 34.5 129.5 34.5s90.166 -11.667 128.499 -35s68.166 -54.666 89.499 -93.999c21.333 38 50.5 68.667 87.5 92
s78.5 35 124.5 35c44 0 83.833 -11.5 119.5 -34.5s64 -54 85 -93s31.5 -82.5 31.5 -130.5v-23h-410c4 -32.667 14.5 -62 31.5 -88s39.167 -46.5 66.5 -61.5s57.333 -22.5 90 -22.5c26 0 51.167 4 75.5 12s45.166 19.333 62.499 34l46 -49
c-28 -20.667 -57.333 -36.167 -88 -46.5s-63.667 -15.5 -99 -15.5c-48.667 0 -92.667 11.833 -132 35.5s-69.666 54.834 -90.999 93.501c-21.333 -39.333 -51.166 -70.833 -89.499 -94.5s-81.166 -35.5 -128.499 -35.5zM296 55.9971c34 0 64.833 8.66699 92.5 26
s49.5 40.833 65.5 70.5s24 62.5 24 98.5c0 36.667 -8 69.5 -24 98.5s-37.833 52.167 -65.5 69.5s-58.5 26 -92.5 26s-64.833 -8.66699 -92.5 -26s-49.667 -40.5 -66 -69.5s-24.5 -61.833 -24.5 -98.5c0 -36 8.16699 -68.833 24.5 -98.5s38.333 -53.167 66 -70.5
s58.5 -26 92.5 -26zM554 286.997h335.002c-4.66699 30 -14.834 56.833 -30.501 80.5s-35.167 42.334 -58.5 56.001s-49 20.5 -77 20.5c-28.667 0 -55 -6.66699 -79 -20s-43.833 -31.833 -59.5 -55.5s-25.834 -50.834 -30.501 -81.501z" />
    <glyph glyph-name="Racute" unicode="&#x154;" horiz-adv-x="645" 
d="M77 0v700h300c46 0 86 -8.33301 120 -25s60.5 -40 79.5 -70s28.5 -65.333 28.5 -106c0 -46 -13.5 -85.5 -40.5 -118.5s-63.167 -56.167 -108.5 -69.5l157 -311h-85l-150 301h-224v-301h-77zM154 366h218c47.333 0 85.166 12 113.499 36s42.5 56.333 42.5 97
c0 40 -14.167 72 -42.5 96s-66.166 36 -113.499 36h-218v-265zM253 799l94 116h95l-124 -116h-65z" />
    <glyph glyph-name="racute" unicode="&#x155;" horiz-adv-x="346" 
d="M63 0l0.000976562 501.001h74v-71c15.333 26 34.833 46.167 58.5 60.5s50.834 21.5 81.501 21.5c17.333 0 33 -2.33301 47 -7v-68c-8.66699 3.33301 -17.334 5.66602 -26.001 6.99902s-17.334 2 -26.001 2c-30.667 0 -57.5 -8.83301 -80.5 -26.5
s-41.167 -43.167 -54.5 -76.5v-343h-74zM117.001 600.001l94 116h95l-124 -116h-65z" />
    <glyph glyph-name="Rcommaaccent" unicode="&#x156;" horiz-adv-x="645" 
d="M77 0v700h300c46 0 86 -8.33301 120 -25s60.5 -40 79.5 -70s28.5 -65.333 28.5 -106c0 -46 -13.5 -85.5 -40.5 -118.5s-63.167 -56.167 -108.5 -69.5l157 -311h-85l-150 301h-224v-301h-77zM154 366h218c47.333 0 85.166 12 113.499 36s42.5 56.333 42.5 97
c0 40 -14.167 72 -42.5 96s-66.166 36 -113.499 36h-218v-265zM241 -264l41 179h74l-60 -179h-55z" />
    <glyph glyph-name="rcommaaccent" unicode="&#x157;" horiz-adv-x="346" 
d="M63 0l0.000976562 501.001h74v-71c15.333 26 34.833 46.167 58.5 60.5s50.834 21.5 81.501 21.5c17.333 0 33 -2.33301 47 -7v-68c-8.66699 3.33301 -17.334 5.66602 -26.001 6.99902s-17.334 2 -26.001 2c-30.667 0 -57.5 -8.83301 -80.5 -26.5
s-41.167 -43.167 -54.5 -76.5v-343h-74zM22.001 -263.999l41 179h74l-60 -179h-55z" />
    <glyph glyph-name="Rcaron" unicode="&#x158;" horiz-adv-x="645" 
d="M77 0v700h300c46 0 86 -8.33301 120 -25s60.5 -40 79.5 -70s28.5 -65.333 28.5 -106c0 -46 -13.5 -85.5 -40.5 -118.5s-63.167 -56.167 -108.5 -69.5l157 -311h-85l-150 301h-224v-301h-77zM154 366h218c47.333 0 85.166 12 113.499 36s42.5 56.333 42.5 97
c0 40 -14.167 72 -42.5 96s-66.166 36 -113.499 36h-218v-265zM235 917l82 -79l82 79h62l-104 -120h-80l-104 120h62z" />
    <glyph glyph-name="rcaron" unicode="&#x159;" horiz-adv-x="346" 
d="M63 0l0.000976562 501.001h74v-71c15.333 26 34.833 46.167 58.5 60.5s50.834 21.5 81.501 21.5c17.333 0 33 -2.33301 47 -7v-68c-8.66699 3.33301 -17.334 5.66602 -26.001 6.99902s-17.334 2 -26.001 2c-30.667 0 -57.5 -8.83301 -80.5 -26.5
s-41.167 -43.167 -54.5 -76.5v-343h-74zM99.001 718.001l82 -79l82 79h62l-104 -120h-80l-104 120h62z" />
    <glyph glyph-name="Sacute" unicode="&#x15a;" 
d="M304 -10c-55.333 0 -108.334 11.1699 -159.001 33.5029s-95.334 54.5 -134.001 96.5l51 53c36 -38.667 74.5 -67.667 115.5 -87s84.167 -29 129.5 -29c36.667 0 69.167 5.83301 97.5 17.5s50.5 28 66.5 49s24 44.833 24 71.5c0 36 -12.5 63.667 -37.5 83
s-66.167 33.666 -123.5 42.999l-101 16c-67.333 11.333 -117 31.333 -149 60s-48 67.667 -48 117c0 38.667 10.333 72.667 31 102s49.5 52.166 86.5 68.499s79.833 24.5 128.5 24.5c49.333 0 97.833 -8 145.5 -24s91.167 -39 130.5 -69l-44 -60c-76.667 58 -155 87 -235 87
c-33.333 0 -62.666 -5.16699 -87.999 -15.5s-45 -24.666 -59 -42.999s-21 -39.833 -21 -64.5c0 -32.667 11 -57.667 33 -75s58.333 -30 109 -38l100 -16c76.667 -12.667 132.334 -34.167 167.001 -64.5s52 -72.833 52 -127.5c0 -40.667 -11.333 -76.834 -34 -108.501
s-54.167 -56.334 -94.5 -74.001s-86.833 -26.5 -139.5 -26.5zM216.999 801.003l94 116h95l-124 -116h-65z" />
    <glyph glyph-name="sacute" unicode="&#x15b;" horiz-adv-x="446" 
d="M223 -10c-41.333 0 -80.1689 6.83301 -116.502 20.5s-67.833 32.834 -94.5 57.501l45 48c23.333 -21.333 49 -37.833 77 -49.5s56.667 -17.5 86 -17.5c40 0 72.667 8.33301 98 25s38 38.334 38 65.001c0 22 -7.5 39.167 -22.5 51.5s-38.5 20.833 -70.5 25.5l-87 12
c-50 7.33301 -87.167 22.333 -111.5 45s-36.5 53.334 -36.5 92.001c0 28 8 53 24 75s38.167 39.333 66.5 52s60.833 19 97.5 19s71 -5.33301 103 -16s63.333 -27.334 94 -50.001l-39 -50c-28 19.333 -55.167 33.5 -81.5 42.5s-53.166 13.5 -80.499 13.5
c-34.667 0 -62.667 -7.66699 -84 -23s-32 -35.333 -32 -60c0 -22.667 7.33301 -39.834 22 -51.501s38.334 -19.834 71.001 -24.501l87 -12c50 -6.66699 87.5 -21.334 112.5 -44.001s37.5 -53.667 37.5 -93c0 -28.667 -9 -54.667 -27 -78s-42.167 -41.666 -72.5 -54.999
s-64.833 -20 -103.5 -20zM157.997 600l94 116h95l-124 -116h-65z" />
    <glyph glyph-name="Scircumflex" unicode="&#x15c;" 
d="M304 -10c-55.333 0 -108.334 11.1699 -159.001 33.5029s-95.334 54.5 -134.001 96.5l51 53c36 -38.667 74.5 -67.667 115.5 -87s84.167 -29 129.5 -29c36.667 0 69.167 5.83301 97.5 17.5s50.5 28 66.5 49s24 44.833 24 71.5c0 36 -12.5 63.667 -37.5 83
s-66.167 33.666 -123.5 42.999l-101 16c-67.333 11.333 -117 31.333 -149 60s-48 67.667 -48 117c0 38.667 10.333 72.667 31 102s49.5 52.166 86.5 68.499s79.833 24.5 128.5 24.5c49.333 0 97.833 -8 145.5 -24s91.167 -39 130.5 -69l-44 -60c-76.667 58 -155 87 -235 87
c-33.333 0 -62.666 -5.16699 -87.999 -15.5s-45 -24.666 -59 -42.999s-21 -39.833 -21 -64.5c0 -32.667 11 -57.667 33 -75s58.333 -30 109 -38l100 -16c76.667 -12.667 132.334 -34.167 167.001 -64.5s52 -72.833 52 -127.5c0 -40.667 -11.333 -76.834 -34 -108.501
s-54.167 -56.334 -94.5 -74.001s-86.833 -26.5 -139.5 -26.5zM363.999 797.003l-84 80l-83 -80h-60l104 121h80l104 -121h-61z" />
    <glyph glyph-name="scircumflex" unicode="&#x15d;" horiz-adv-x="446" 
d="M223 -10c-41.333 0 -80.1689 6.83301 -116.502 20.5s-67.833 32.834 -94.5 57.501l45 48c23.333 -21.333 49 -37.833 77 -49.5s56.667 -17.5 86 -17.5c40 0 72.667 8.33301 98 25s38 38.334 38 65.001c0 22 -7.5 39.167 -22.5 51.5s-38.5 20.833 -70.5 25.5l-87 12
c-50 7.33301 -87.167 22.333 -111.5 45s-36.5 53.334 -36.5 92.001c0 28 8 53 24 75s38.167 39.333 66.5 52s60.833 19 97.5 19s71 -5.33301 103 -16s63.333 -27.334 94 -50.001l-39 -50c-28 19.333 -55.167 33.5 -81.5 42.5s-53.166 13.5 -80.499 13.5
c-34.667 0 -62.667 -7.66699 -84 -23s-32 -35.333 -32 -60c0 -22.667 7.33301 -39.834 22 -51.501s38.334 -19.834 71.001 -24.501l87 -12c50 -6.66699 87.5 -21.334 112.5 -44.001s37.5 -53.667 37.5 -93c0 -28.667 -9 -54.667 -27 -78s-42.167 -41.666 -72.5 -54.999
s-64.833 -20 -103.5 -20zM304.997 596l-84 80l-83 -80h-60l104 121h80l104 -121h-61z" />
    <glyph glyph-name="Scedilla" unicode="&#x15e;" 
d="M274 -226c-46 0 -83.6709 13.6689 -113.004 41.002l30 32c25.333 -21.333 53 -32 83 -32c20 0 35.667 4.5 47 13.5s17 20.833 17 35.5s-6.16699 26.167 -18.5 34.5s-29.166 12.5 -50.499 12.5h-29l23 81c-48 5.33301 -93.667 18.833 -137 40.5
s-81.666 50.834 -114.999 87.501l51 53c36 -38.667 74.5 -67.667 115.5 -87s84.167 -29 129.5 -29c36.667 0 69.167 5.83301 97.5 17.5s50.5 28 66.5 49s24 44.833 24 71.5c0 36 -12.5 63.667 -37.5 83s-66.167 33.666 -123.5 42.999l-101 16
c-67.333 11.333 -117 31.333 -149 60s-48 67.667 -48 117c0 38.667 10.333 72.667 31 102s49.5 52.166 86.5 68.499s79.833 24.5 128.5 24.5c49.333 0 97.833 -8 145.5 -24s91.167 -39 130.5 -69l-44 -60c-76.667 58 -155 87 -235 87
c-33.333 0 -62.666 -5.16699 -87.999 -15.5s-45 -24.666 -59 -42.999s-21 -39.833 -21 -64.5c0 -32.667 11 -57.667 33 -75s58.333 -30 109 -38l100 -16c76.667 -12.667 132.334 -34.167 167.001 -64.5s52 -72.833 52 -127.5c0 -40.667 -11.333 -76.834 -34 -108.501
s-54 -56.334 -94 -74.001s-86 -26.5 -138 -26.5l-12 -43c29.333 -1.33301 52.5 -9.33301 69.5 -24s25.5 -34 25.5 -58c0 -26.667 -10.833 -48.5 -32.5 -65.5s-49.167 -25.5 -82.5 -25.5z" />
    <glyph glyph-name="scedilla" unicode="&#x15f;" horiz-adv-x="446" 
d="M211 -228c-46 0 -83.6689 13.6699 -113.002 41.0029l30 32c25.333 -21.333 53 -32 83 -32c20 0 35.667 4.5 47 13.5s17 20.833 17 35.5s-6.16699 26.167 -18.5 34.5s-29.166 12.5 -50.499 12.5h-29l24 83c-36.667 2 -71.334 9.66699 -104.001 23s-61 31.333 -85 54l45 48
c23.333 -21.333 49 -37.833 77 -49.5s56.667 -17.5 86 -17.5c40 0 72.667 8.33301 98 25s38 38.334 38 65.001c0 21.333 -7.5 38.166 -22.5 50.499s-38.5 20.833 -70.5 25.5l-87 12c-50 7.33301 -87.167 22.166 -111.5 44.499s-36.5 52.5 -36.5 90.5c0 28 8 53 24 75
s38.167 39.333 66.5 52s60.833 19 97.5 19s71 -5.33301 103 -16s63.333 -27.334 94 -50.001l-39 -50c-28 19.333 -55.167 33.5 -81.5 42.5s-53.166 13.5 -80.499 13.5c-34.667 0 -62.667 -7.66699 -84 -23s-32 -35.333 -32 -60c0 -21.333 7.33301 -37.666 22 -48.999
s38.334 -19.666 71.001 -24.999l87 -12c50 -6.66699 87.5 -21.334 112.5 -44.001s37.5 -53.334 37.5 -92.001c0 -27.333 -8 -52 -24 -74s-37.667 -39.833 -65 -53.5s-58.333 -21.834 -93 -24.501l-13 -47c29.333 -1.33301 52.5 -9.33301 69.5 -24s25.5 -34 25.5 -58
c0 -26.667 -10.833 -48.5 -32.5 -65.5s-49.167 -25.5 -82.5 -25.5z" />
    <glyph glyph-name="Scaron" unicode="&#x160;" 
d="M304 -10c-55.333 0 -108.334 11.1699 -159.001 33.5029s-95.334 54.5 -134.001 96.5l51 53c36 -38.667 74.5 -67.667 115.5 -87s84.167 -29 129.5 -29c36.667 0 69.167 5.83301 97.5 17.5s50.5 28 66.5 49s24 44.833 24 71.5c0 36 -12.5 63.667 -37.5 83
s-66.167 33.666 -123.5 42.999l-101 16c-67.333 11.333 -117 31.333 -149 60s-48 67.667 -48 117c0 38.667 10.333 72.667 31 102s49.5 52.166 86.5 68.499s79.833 24.5 128.5 24.5c49.333 0 97.833 -8 145.5 -24s91.167 -39 130.5 -69l-44 -60c-76.667 58 -155 87 -235 87
c-33.333 0 -62.666 -5.16699 -87.999 -15.5s-45 -24.666 -59 -42.999s-21 -39.833 -21 -64.5c0 -32.667 11 -57.667 33 -75s58.333 -30 109 -38l100 -16c76.667 -12.667 132.334 -34.167 167.001 -64.5s52 -72.833 52 -127.5c0 -40.667 -11.333 -76.834 -34 -108.501
s-54.167 -56.334 -94.5 -74.001s-86.833 -26.5 -139.5 -26.5zM198.999 919.003l82 -79l82 79h62l-104 -120h-80l-104 120h62z" />
    <glyph glyph-name="scaron" unicode="&#x161;" horiz-adv-x="446" 
d="M223 -10c-41.333 0 -80.1689 6.83301 -116.502 20.5s-67.833 32.834 -94.5 57.501l45 48c23.333 -21.333 49 -37.833 77 -49.5s56.667 -17.5 86 -17.5c40 0 72.667 8.33301 98 25s38 38.334 38 65.001c0 22 -7.5 39.167 -22.5 51.5s-38.5 20.833 -70.5 25.5l-87 12
c-50 7.33301 -87.167 22.333 -111.5 45s-36.5 53.334 -36.5 92.001c0 28 8 53 24 75s38.167 39.333 66.5 52s60.833 19 97.5 19s71 -5.33301 103 -16s63.333 -27.334 94 -50.001l-39 -50c-28 19.333 -55.167 33.5 -81.5 42.5s-53.166 13.5 -80.499 13.5
c-34.667 0 -62.667 -7.66699 -84 -23s-32 -35.333 -32 -60c0 -22.667 7.33301 -39.834 22 -51.501s38.334 -19.834 71.001 -24.501l87 -12c50 -6.66699 87.5 -21.334 112.5 -44.001s37.5 -53.667 37.5 -93c0 -28.667 -9 -54.667 -27 -78s-42.167 -41.666 -72.5 -54.999
s-64.833 -20 -103.5 -20zM139.997 718l82 -79l82 79h62l-104 -120h-80l-104 120h62z" />
    <glyph glyph-name="Tcedilla" unicode="&#x162;" horiz-adv-x="617" 
d="M295 -228c-46 0 -83.668 13.667 -113.001 41l30 32c25.333 -21.333 53 -32 83 -32c20 0 35.667 4.5 47 13.5s17 20.833 17 35.5s-6.16699 26.167 -18.5 34.5s-29.166 12.5 -50.499 12.5h-29l26 91h-17v631h-253v69h583v-69h-253v-631h-17l-15 -55
c29.333 -1.33301 52.5 -9.33301 69.5 -24s25.5 -34 25.5 -58c0 -26.667 -10.833 -48.5 -32.5 -65.5s-49.167 -25.5 -82.5 -25.5z" />
    <glyph glyph-name="tcedilla" unicode="&#x163;" horiz-adv-x="365" 
d="M216 -228c-46 0 -83.666 13.6689 -112.999 41.002l30 32c25.333 -21.333 53 -32 83 -32c20 0 35.667 4.5 47 13.5s17 20.833 17 35.5s-6.16699 26.167 -18.5 34.5s-29.166 12.5 -50.499 12.5h-29l25 88c-54.667 15.333 -82 53.666 -82 114.999v326h-108v63h108v127l73 19
v-146h151v-63h-151v-307c0 -26.667 6 -45.834 18 -57.501s31.667 -17.5 59 -17.5c14 0 26.5 1 37.5 3s22.833 5.33301 35.5 10v-65c-12.667 -4.66699 -26.834 -8 -42.501 -10s-30.834 -3 -45.501 -3h-5.5h-5.5l-13 -46c29.333 -1.33301 52.5 -9.33301 69.5 -24
s25.5 -34 25.5 -58c0 -26.667 -10.833 -48.5 -32.5 -65.5s-49.167 -25.5 -82.5 -25.5z" />
    <glyph glyph-name="Tcaron" unicode="&#x164;" horiz-adv-x="617" 
d="M270 0v631h-253v69h583v-69h-253v-631h-77zM226 917l82 -79l82 79h62l-104 -120h-80l-104 120h62z" />
    <glyph glyph-name="tcaron" unicode="&#x165;" horiz-adv-x="365" 
d="M275 582l6 186l78 14l-25 -200h-59zM260 -9c-43.333 0 -76.665 10.334 -99.998 31.001s-35 50.667 -35 90v326h-108v63h108v127l73 19v-146h151v-63h-151v-307c0 -26.667 6 -45.834 18 -57.501s31.667 -17.5 59 -17.5c14 0 26.5 1 37.5 3s22.833 5.33301 35.5 10v-65
c-12.667 -4.66699 -26.834 -8 -42.501 -10s-30.834 -3 -45.501 -3z" />
    <glyph glyph-name="Tbar" unicode="&#x166;" horiz-adv-x="617" 
d="M270 0v306h-149v66h149v259h-253v69h583v-69h-253v-259h149v-66h-149v-306h-77z" />
    <glyph glyph-name="tbar" unicode="&#x167;" horiz-adv-x="365" 
d="M260 -10c-43.333 0 -76.665 10.334 -99.998 31.001s-35 50.667 -35 90v152h-108v59h108v116h-108v63h108v127l73 19v-146h151v-63h-151v-116h154v-59h-154v-133c0 -26.667 6 -45.834 18 -57.501s31.667 -17.5 59 -17.5c14 0 26.5 1 37.5 3s22.833 5.33301 35.5 10v-65
c-12.667 -4.66699 -26.834 -8 -42.501 -10s-30.834 -3 -45.501 -3z" />
    <glyph glyph-name="Utilde" unicode="&#x168;" horiz-adv-x="704" 
d="M352 -11c-59.333 0 -110.668 12.5 -154.001 37.5s-76.666 60.5 -99.999 106.5s-35 100.333 -35 163v404h77v-404c0 -48 8.66699 -89.667 26 -125s42 -62.666 74 -81.999s69.333 -29 112 -29c43.333 0 80.833 9.66699 112.5 29s56.167 46.666 73.5 81.999s26 77 26 125
v404h77v-404c0 -62.667 -11.833 -117 -35.5 -163s-57 -81.5 -100 -106.5s-94.167 -37.5 -153.5 -37.5zM235.998 794l-52 10c14.667 66.667 46 100 94 100c18 0 35.5 -4.5 52.5 -13.5s33.167 -18.167 48.5 -27.5s30 -14 44 -14c11.333 0 20.5 4.33301 27.5 13
s12.833 23.334 17.5 44.001l51 -10c-6.66699 -33.333 -18 -58.333 -34 -75s-36 -25 -60 -25c-17.333 0 -34.5 4.66699 -51.5 14l-49 27.5c-15.667 9 -30.5 13.5 -44.5 13.5c-12 0 -21.333 -4.33301 -28 -13s-12 -23.334 -16 -44.001z" />
    <glyph glyph-name="utilde" unicode="&#x169;" horiz-adv-x="549" 
d="M255 -10c-38 0 -71.6699 8.16699 -101.003 24.5s-52.166 39 -68.499 68s-24.5 62.833 -24.5 101.5v317h73v-302c0 -44.667 12.667 -79.834 38 -105.501s59.333 -38.5 102 -38.5c30 0 56.833 6.83301 80.5 20.5s42.834 32.834 57.501 57.501v368h74v-501h-74v58
c-39.333 -45.333 -91.666 -68 -156.999 -68zM157.997 595l-52 10c14.667 66.667 46 100 94 100c18 0 35.5 -4.5 52.5 -13.5s33.167 -18.167 48.5 -27.5s30 -14 44 -14c11.333 0 20.5 4.33301 27.5 13s12.833 23.334 17.5 44.001l51 -10
c-6.66699 -33.333 -18 -58.333 -34 -75s-36 -25 -60 -25c-17.333 0 -34.5 4.66699 -51.5 14l-49 27.5c-15.667 9 -30.5 13.5 -44.5 13.5c-12 0 -21.333 -4.33301 -28 -13s-12 -23.334 -16 -44.001z" />
    <glyph glyph-name="Umacron" unicode="&#x16a;" horiz-adv-x="704" 
d="M352 -11c-59.333 0 -110.668 12.5 -154.001 37.5s-76.666 60.5 -99.999 106.5s-35 100.333 -35 163v404h77v-404c0 -48 8.66699 -89.667 26 -125s42 -62.666 74 -81.999s69.333 -29 112 -29c43.333 0 80.833 9.66699 112.5 29s56.167 46.666 73.5 81.999s26 77 26 125
v404h77v-404c0 -62.667 -11.833 -117 -35.5 -163s-57 -81.5 -100 -106.5s-94.167 -37.5 -153.5 -37.5zM209.998 820v53h284v-53h-284z" />
    <glyph glyph-name="umacron" unicode="&#x16b;" horiz-adv-x="549" 
d="M255 -10c-38 0 -71.6699 8.16699 -101.003 24.5s-52.166 39 -68.499 68s-24.5 62.833 -24.5 101.5v317h73v-302c0 -44.667 12.667 -79.834 38 -105.501s59.333 -38.5 102 -38.5c30 0 56.833 6.83301 80.5 20.5s42.834 32.834 57.501 57.501v368h74v-501h-74v58
c-39.333 -45.333 -91.666 -68 -156.999 -68zM131.997 621v53h284v-53h-284z" />
    <glyph glyph-name="Ubreve" unicode="&#x16c;" horiz-adv-x="704" 
d="M352 -11c-59.333 0 -110.668 12.5 -154.001 37.5s-76.666 60.5 -99.999 106.5s-35 100.333 -35 163v404h77v-404c0 -48 8.66699 -89.667 26 -125s42 -62.666 74 -81.999s69.333 -29 112 -29c43.333 0 80.833 9.66699 112.5 29s56.167 46.666 73.5 81.999s26 77 26 125
v404h77v-404c0 -62.667 -11.833 -117 -35.5 -163s-57 -81.5 -100 -106.5s-94.167 -37.5 -153.5 -37.5zM351.998 791c-40 0 -73.501 10.832 -100.501 32.499s-44.833 51.834 -53.5 90.501l52 13c14 -58 48 -87 102 -87c25.333 0 46.833 7.33301 64.5 22
s30.167 36.334 37.5 65.001l52 -13c-8.66699 -38.667 -26.667 -68.834 -54 -90.501s-60.666 -32.5 -99.999 -32.5z" />
    <glyph glyph-name="ubreve" unicode="&#x16d;" horiz-adv-x="549" 
d="M255 -10c-38 0 -71.6699 8.16699 -101.003 24.5s-52.166 39 -68.499 68s-24.5 62.833 -24.5 101.5v317h73v-302c0 -44.667 12.667 -79.834 38 -105.501s59.333 -38.5 102 -38.5c30 0 56.833 6.83301 80.5 20.5s42.834 32.834 57.501 57.501v368h74v-501h-74v58
c-39.333 -45.333 -91.666 -68 -156.999 -68zM273.997 592c-40 0 -73.501 10.832 -100.501 32.499s-44.833 51.834 -53.5 90.501l52 13c14 -58 48 -87 102 -87c25.333 0 46.833 7.33301 64.5 22s30.167 36.334 37.5 65.001l52 -13
c-8.66699 -38.667 -26.667 -68.834 -54 -90.501s-60.666 -32.5 -99.999 -32.5z" />
    <glyph glyph-name="Uring" unicode="&#x16e;" horiz-adv-x="704" 
d="M352 -11c-59.333 0 -110.668 12.5 -154.001 37.5s-76.666 60.5 -99.999 106.5s-35 100.333 -35 163v404h77v-404c0 -48 8.66699 -89.667 26 -125s42 -62.666 74 -81.999s69.333 -29 112 -29c43.333 0 80.833 9.66699 112.5 29s56.167 46.666 73.5 81.999s26 77 26 125
v404h77v-404c0 -62.667 -11.833 -117 -35.5 -163s-57 -81.5 -100 -106.5s-94.167 -37.5 -153.5 -37.5zM351.998 782c-20.667 0 -39.5 5 -56.5 15s-30.5 23.5 -40.5 40.5s-15 35.5 -15 55.5c0 20.667 5 39.334 15 56.001s23.5 30 40.5 40s35.833 15 56.5 15s39.5 -5 56.5 -15
s30.5 -23.333 40.5 -40s15 -35.334 15 -56.001c0 -20 -5 -38.5 -15 -55.5s-23.5 -30.5 -40.5 -40.5s-35.833 -15 -56.5 -15zM351.998 823c19.333 0 35.833 6.83301 49.5 20.5s20.5 30.167 20.5 49.5s-6.83301 35.833 -20.5 49.5s-30.167 20.5 -49.5 20.5
s-35.833 -6.83301 -49.5 -20.5s-20.5 -30.167 -20.5 -49.5s6.83301 -35.833 20.5 -49.5s30.167 -20.5 49.5 -20.5z" />
    <glyph glyph-name="uring" unicode="&#x16f;" horiz-adv-x="549" 
d="M255 -10c-38 0 -71.6699 8.16699 -101.003 24.5s-52.166 39 -68.499 68s-24.5 62.833 -24.5 101.5v317h73v-302c0 -44.667 12.667 -79.834 38 -105.501s59.333 -38.5 102 -38.5c30 0 56.833 6.83301 80.5 20.5s42.834 32.834 57.501 57.501v368h74v-501h-74v58
c-39.333 -45.333 -91.666 -68 -156.999 -68zM273.997 583c-20.667 0 -39.5 5 -56.5 15s-30.5 23.5 -40.5 40.5s-15 35.5 -15 55.5c0 20.667 5 39.334 15 56.001s23.5 30 40.5 40s35.833 15 56.5 15s39.5 -5 56.5 -15s30.5 -23.333 40.5 -40s15 -35.334 15 -56.001
c0 -20 -5 -38.5 -15 -55.5s-23.5 -30.5 -40.5 -40.5s-35.833 -15 -56.5 -15zM273.997 624c19.333 0 35.833 6.83301 49.5 20.5s20.5 30.167 20.5 49.5s-6.83301 35.833 -20.5 49.5s-30.167 20.5 -49.5 20.5s-35.833 -6.83301 -49.5 -20.5s-20.5 -30.167 -20.5 -49.5
s6.83301 -35.833 20.5 -49.5s30.167 -20.5 49.5 -20.5z" />
    <glyph glyph-name="Uhungarumlaut" unicode="&#x170;" horiz-adv-x="704" 
d="M352 -11c-59.333 0 -110.668 12.5 -154.001 37.5s-76.666 60.5 -99.999 106.5s-35 100.333 -35 163v404h77v-404c0 -48 8.66699 -89.667 26 -125s42 -62.666 74 -81.999s69.333 -29 112 -29c43.333 0 80.833 9.66699 112.5 29s56.167 46.666 73.5 81.999s26 77 26 125
v404h77v-404c0 -62.667 -11.833 -117 -35.5 -163s-57 -81.5 -100 -106.5s-94.167 -37.5 -153.5 -37.5zM234.998 802l104 113h86l-127 -113h-63zM399.998 802l104 113h87l-130 -113h-61z" />
    <glyph glyph-name="uhungarumlaut" unicode="&#x171;" horiz-adv-x="549" 
d="M255 -10c-38 0 -71.6699 8.16699 -101.003 24.5s-52.166 39 -68.499 68s-24.5 62.833 -24.5 101.5v317h73v-302c0 -44.667 12.667 -79.834 38 -105.501s59.333 -38.5 102 -38.5c30 0 56.833 6.83301 80.5 20.5s42.834 32.834 57.501 57.501v368h74v-501h-74v58
c-39.333 -45.333 -91.666 -68 -156.999 -68zM156.997 603l104 113h86l-127 -113h-63zM321.997 603l104 113h87l-130 -113h-61z" />
    <glyph glyph-name="Uogonek" unicode="&#x172;" horiz-adv-x="704" 
d="M374 -221c-29.333 0 -52.998 7.83301 -70.998 23.5s-27 36.5 -27 62.5c0 21.333 6.66699 41.833 20 61.5s35 40.5 65 62.5c-60 -0.666992 -112.333 11.166 -157 35.499s-79.334 59.5 -104.001 105.5s-37 101.333 -37 166v404h77v-404c0 -48 8.66699 -89.667 26 -125
s42 -62.666 74 -81.999s69.333 -29 112 -29c43.333 0 80.833 9.66699 112.5 29s56.167 46.666 73.5 81.999s26 77 26 125v404h77v-404c0 -79.333 -18.833 -145.166 -56.5 -197.499s-89.5 -86.166 -155.5 -101.499c-34.667 -22.667 -60.334 -43.5 -77.001 -62.5
s-25 -38.167 -25 -57.5c0 -16.667 5 -29.5 15 -38.5s24.333 -13.5 43 -13.5c8.66699 0 17.167 1.16699 25.5 3.5s15.833 5.83301 22.5 10.5l15 -39c-10.667 -6.66699 -22.167 -11.834 -34.5 -15.501s-25.5 -5.5 -39.5 -5.5z" />
    <glyph glyph-name="uogonek" unicode="&#x173;" horiz-adv-x="549" 
d="M428 -221c-29.333 0 -53.0029 7.83496 -71.0029 23.502s-27 36.5 -27 62.5c0 23.333 7.83301 45.666 23.5 66.999s40.834 44 75.501 68h-17v58c-39.333 -45.333 -91.666 -68 -156.999 -68c-38 0 -71.667 8.16699 -101 24.5s-52.166 39 -68.499 68
s-24.5 62.833 -24.5 101.5v317h73v-302c0 -44.667 12.667 -79.834 38 -105.501s59.333 -38.5 102 -38.5c30 0 56.833 6.83301 80.5 20.5s42.834 32.834 57.501 57.501v368h74v-501c-36.667 -22.667 -63.334 -44 -80.001 -64s-25 -39.667 -25 -59c0 -16.667 5 -29.5 15 -38.5
s24.333 -13.5 43 -13.5c8.66699 0 17.167 1.16699 25.5 3.5s15.833 5.83301 22.5 10.5l15 -39c-10.667 -6.66699 -22.167 -11.834 -34.5 -15.501s-25.5 -5.5 -39.5 -5.5z" />
    <glyph glyph-name="Wcircumflex" unicode="&#x174;" horiz-adv-x="882" 
d="M186 0l-151 700h78l119 -578l173 578h75l173 -576l120 576h75l-151 -700h-78l-177 593l-178 -593h-78zM522 795l-84 80l-83 -80h-60l104 121h80l104 -121h-61z" />
    <glyph glyph-name="wcircumflex" unicode="&#x175;" horiz-adv-x="703" 
d="M155 0l-141 501h73l108 -400l125 400h66l124 -400l109 400h70l-142 -501h-71l-124 401l-125 -401h-72zM435 596l-84 80l-83 -80h-60l104 121h80l104 -121h-61z" />
    <glyph glyph-name="Ycircumflex" unicode="&#x176;" horiz-adv-x="639" 
d="M281 0v285l-278 415h90l229 -347l228 347h87l-279 -418v-282h-77zM403 795l-84 80l-83 -80h-60l104 121h80l104 -121h-61z" />
    <glyph glyph-name="ycircumflex" unicode="&#x177;" horiz-adv-x="510" 
d="M84 -214c-9.33301 0 -18.168 0.5 -26.501 1.5s-15.166 2.16699 -20.499 3.5v67c11.333 -2.66699 25.333 -4 42 -4c44 0 77.333 26 100 78l30 69l-204 500h82l162 -411l175 411h80l-250 -579c-14 -32 -29 -58 -45 -78s-34.167 -34.667 -54.5 -44s-43.833 -14 -70.5 -14z
M332.998 596l-84 80l-83 -80h-60l104 121h80l104 -121h-61z" />
    <glyph glyph-name="Ydieresis" unicode="&#x178;" horiz-adv-x="639" 
d="M281 0v285l-278 415h90l229 -347l228 347h87l-279 -418v-282h-77zM233 810c-14 0 -25.833 4.66699 -35.5 14s-14.5 20.666 -14.5 33.999s4.83301 24.666 14.5 33.999s21.5 14 35.5 14s25.833 -4.66699 35.5 -14s14.5 -20.666 14.5 -33.999
s-4.83301 -24.666 -14.5 -33.999s-21.5 -14 -35.5 -14zM407 810c-14 0 -25.833 4.66699 -35.5 14s-14.5 20.666 -14.5 33.999s4.83301 24.666 14.5 33.999s21.5 14 35.5 14s25.833 -4.66699 35.5 -14s14.5 -20.666 14.5 -33.999s-4.83301 -24.666 -14.5 -33.999
s-21.5 -14 -35.5 -14z" />
    <glyph glyph-name="Zacute" unicode="&#x179;" horiz-adv-x="604" 
d="M24 0v55l445 577h-441v68h542v-55l-447 -577h455v-68h-554zM244 799l94 116h95l-124 -116h-65z" />
    <glyph glyph-name="zacute" unicode="&#x17a;" horiz-adv-x="463" 
d="M31 0v58l302 377h-299v66h389v-57l-303 -378h306v-66h-395zM164 600l94 116h95l-124 -116h-65z" />
    <glyph glyph-name="Zdotaccent" unicode="&#x17b;" horiz-adv-x="604" 
d="M24 0v55l445 577h-441v68h542v-55l-447 -577h455v-68h-554zM308 801c-13.333 0 -24.833 4.83301 -34.5 14.5s-14.5 21.167 -14.5 34.5s4.83301 24.833 14.5 34.5s21.167 14.5 34.5 14.5s24.833 -4.83301 34.5 -14.5s14.5 -21.167 14.5 -34.5
s-4.83301 -24.833 -14.5 -34.5s-21.167 -14.5 -34.5 -14.5z" />
    <glyph glyph-name="zdotaccent" unicode="&#x17c;" horiz-adv-x="463" 
d="M31 0v58l302 377h-299v66h389v-57l-303 -378h306v-66h-395zM228 602c-13.333 0 -24.833 4.83301 -34.5 14.5s-14.5 21.167 -14.5 34.5s4.83301 24.833 14.5 34.5s21.167 14.5 34.5 14.5s24.833 -4.83301 34.5 -14.5s14.5 -21.167 14.5 -34.5
s-4.83301 -24.833 -14.5 -34.5s-21.167 -14.5 -34.5 -14.5z" />
    <glyph glyph-name="Zcaron" unicode="&#x17d;" horiz-adv-x="604" 
d="M24 0v55l445 577h-441v68h542v-55l-447 -577h455v-68h-554zM226 917l82 -79l82 79h62l-104 -120h-80l-104 120h62z" />
    <glyph glyph-name="zcaron" unicode="&#x17e;" horiz-adv-x="463" 
d="M31 0v58l302 377h-299v66h389v-57l-303 -378h306v-66h-395zM146 718l82 -79l82 79h62l-104 -120h-80l-104 120h62z" />
    <glyph glyph-name="Scommaaccent" unicode="&#x218;" 
d="M304 -10c-55.333 0 -108.334 11.1699 -159.001 33.5029s-95.334 54.5 -134.001 96.5l51 53c36 -38.667 74.5 -67.667 115.5 -87s84.167 -29 129.5 -29c36.667 0 69.167 5.83301 97.5 17.5s50.5 28 66.5 49s24 44.833 24 71.5c0 36 -12.5 63.667 -37.5 83
s-66.167 33.666 -123.5 42.999l-101 16c-67.333 11.333 -117 31.333 -149 60s-48 67.667 -48 117c0 38.667 10.333 72.667 31 102s49.5 52.166 86.5 68.499s79.833 24.5 128.5 24.5c49.333 0 97.833 -8 145.5 -24s91.167 -39 130.5 -69l-44 -60c-76.667 58 -155 87 -235 87
c-33.333 0 -62.666 -5.16699 -87.999 -15.5s-45 -24.666 -59 -42.999s-21 -39.833 -21 -64.5c0 -32.667 11 -57.667 33 -75s58.333 -30 109 -38l100 -16c76.667 -12.667 132.334 -34.167 167.001 -64.5s52 -72.833 52 -127.5c0 -40.667 -11.333 -76.834 -34 -108.501
s-54.167 -56.334 -94.5 -74.001s-86.833 -26.5 -139.5 -26.5zM209.999 -261.997l41 179h74l-60 -179h-55z" />
    <glyph glyph-name="scommaaccent" unicode="&#x219;" horiz-adv-x="446" 
d="M223 -10c-41.333 0 -80.1689 6.83301 -116.502 20.5s-67.833 32.834 -94.5 57.501l45 48c23.333 -21.333 49 -37.833 77 -49.5s56.667 -17.5 86 -17.5c40 0 72.667 8.33301 98 25s38 38.334 38 65.001c0 22 -7.5 39.167 -22.5 51.5s-38.5 20.833 -70.5 25.5l-87 12
c-50 7.33301 -87.167 22.333 -111.5 45s-36.5 53.334 -36.5 92.001c0 28 8 53 24 75s38.167 39.333 66.5 52s60.833 19 97.5 19s71 -5.33301 103 -16s63.333 -27.334 94 -50.001l-39 -50c-28 19.333 -55.167 33.5 -81.5 42.5s-53.166 13.5 -80.499 13.5
c-34.667 0 -62.667 -7.66699 -84 -23s-32 -35.333 -32 -60c0 -22.667 7.33301 -39.834 22 -51.501s38.334 -19.834 71.001 -24.501l87 -12c50 -6.66699 87.5 -21.334 112.5 -44.001s37.5 -53.667 37.5 -93c0 -28.667 -9 -54.667 -27 -78s-42.167 -41.666 -72.5 -54.999
s-64.833 -20 -103.5 -20zM145.997 -264l41 179h74l-60 -179h-55z" />
    <glyph glyph-name="uni021A" unicode="&#x21a;" horiz-adv-x="617" 
d="M270 0v631h-253v69h583v-69h-253v-631h-77zM230 -264l41 179h74l-60 -179h-55z" />
    <glyph glyph-name="uni021B" unicode="&#x21b;" horiz-adv-x="365" 
d="M260 -10c-43.333 0 -76.665 10.334 -99.998 31.001s-35 50.667 -35 90v327h-108v63h108v127l73 19v-146h151v-63h-151v-308c0 -26.667 6 -45.834 18 -57.501s31.667 -17.5 59 -17.5c14 0 26.5 1 37.5 3s22.833 5.33301 35.5 10v-65
c-12.667 -4.66699 -26.834 -8 -42.501 -10s-30.834 -3 -45.501 -3zM152.001 -263.999l41 179h74l-60 -179h-55z" />
    <glyph glyph-name="dotlessj" unicode="&#x237;" horiz-adv-x="200" 
d="M9 -214c-8.66699 0 -16.834 0.666992 -24.501 2l-22.5 4v62c11.333 -2.66699 24 -4 38 -4c22.667 0 38.834 5.33301 48.501 16s14.5 28 14.5 52v583h74v-590c0 -39.333 -11 -70 -33 -92s-53.667 -33 -95 -33z" />
    <glyph glyph-name="uni02BB" unicode="&#x2bb;" horiz-adv-x="250" 
d="M201 719l-58 -211h-80l80 211h58z" />
    <glyph glyph-name="uni02BC" unicode="&#x2bc;" horiz-adv-x="250" 
d="M63 508l58 211h80l-80 -211h-58z" />
    <glyph glyph-name="circumflex" unicode="&#x2c6;" 
d="M383 596l-84 80l-83 -80h-60l104 121h80l104 -121h-61z" />
    <glyph glyph-name="caron" unicode="&#x2c7;" 
d="M218 718l82 -79l82 79h62l-104 -120h-80l-104 120h62z" />
    <glyph glyph-name="breve" unicode="&#x2d8;" 
d="M300 592c-40 0 -73.501 10.832 -100.501 32.499s-44.833 51.834 -53.5 90.501l52 13c14 -58 48 -87 102 -87c25.333 0 46.833 7.33301 64.5 22s30.167 36.334 37.5 65.001l52 -13c-8.66699 -38.667 -26.667 -68.834 -54 -90.501s-60.666 -32.5 -99.999 -32.5z" />
    <glyph glyph-name="dotaccent" unicode="&#x2d9;" 
d="M300 602c-13.333 0 -24.833 4.83301 -34.5 14.5s-14.5 21.167 -14.5 34.5s4.83301 24.833 14.5 34.5s21.167 14.5 34.5 14.5s24.833 -4.83301 34.5 -14.5s14.5 -21.167 14.5 -34.5s-4.83301 -24.833 -14.5 -34.5s-21.167 -14.5 -34.5 -14.5z" />
    <glyph glyph-name="ring" unicode="&#x2da;" 
d="M300 583c-20.667 0 -39.5 5 -56.5 15s-30.5 23.5 -40.5 40.5s-15 35.5 -15 55.5c0 20.667 5 39.334 15 56.001s23.5 30 40.5 40s35.833 15 56.5 15s39.5 -5 56.5 -15s30.5 -23.333 40.5 -40s15 -35.334 15 -56.001c0 -20 -5 -38.5 -15 -55.5s-23.5 -30.5 -40.5 -40.5
s-35.833 -15 -56.5 -15zM300 624c19.333 0 35.833 6.83301 49.5 20.5s20.5 30.167 20.5 49.5s-6.83301 35.833 -20.5 49.5s-30.167 20.5 -49.5 20.5s-35.833 -6.83301 -49.5 -20.5s-20.5 -30.167 -20.5 -49.5s6.83301 -35.833 20.5 -49.5s30.167 -20.5 49.5 -20.5z" />
    <glyph glyph-name="ogonek" unicode="&#x2db;" 
d="M294 -221c-29.333 0 -52.999 7.83398 -70.999 23.501s-27 36.5 -27 62.5s9.66699 50.667 29 74s50.666 49 93.999 77l34 -16c-36.667 -22.667 -63.5 -44 -80.5 -64s-25.5 -39.667 -25.5 -59c0 -16.667 5 -29.5 15 -38.5s24.333 -13.5 43 -13.5
c8.66699 0 17.167 1.16699 25.5 3.5s15.833 5.83301 22.5 10.5l15 -39c-10.667 -6.66699 -22.167 -11.834 -34.5 -15.501s-25.5 -5.5 -39.5 -5.5z" />
    <glyph glyph-name="tilde" unicode="&#x2dc;" 
d="M184 594l-52 10c14.667 66.667 46 100 94 100c18 0 35.5 -4.5 52.5 -13.5s33.167 -18.167 48.5 -27.5s30 -14 44 -14c11.333 0 20.5 4.33301 27.5 13s12.833 23.334 17.5 44.001l51 -10c-6.66699 -33.333 -18 -58.333 -34 -75s-36 -25 -60 -25
c-17.333 0 -34.5 4.66699 -51.5 14l-49 27.5c-15.667 9 -30.5 13.5 -44.5 13.5c-12 0 -21.333 -4.33301 -28 -13s-12 -23.334 -16 -44.001z" />
    <glyph glyph-name="hungarumlaut" unicode="&#x2dd;" 
d="M183 603l104 113h86l-127 -113h-63zM348 603l104 113h87l-130 -113h-61z" />
    <glyph glyph-name="uni0327" unicode="&#x327;" horiz-adv-x="0" 
d="M280 -228c-46 0 -83.668 13.667 -113.001 41l30 32c25.333 -21.333 53 -32 83 -32c20 0 35.667 4.5 47 13.5s17 20.833 17 35.5s-6.16699 26.167 -18.5 34.5s-29.166 12.5 -50.499 12.5h-29l26 91h43l-15 -55c29.333 -1.33301 52.5 -9.33301 69.5 -24s25.5 -34 25.5 -58
c0 -26.667 -10.833 -48.5 -32.5 -65.5s-49.167 -25.5 -82.5 -25.5z" />
    <glyph glyph-name="uni0328" unicode="&#x328;" horiz-adv-x="0" 
d="M294 -221c-29.333 0 -52.999 7.83398 -70.999 23.501s-27 36.5 -27 62.5s9.66699 50.667 29 74s50.666 49 93.999 77l34 -16c-36.667 -22.667 -63.5 -44 -80.5 -64s-25.5 -39.667 -25.5 -59c0 -16.667 5 -29.5 15 -38.5s24.333 -13.5 43 -13.5
c8.66699 0 17.167 1.16699 25.5 3.5s15.833 5.83301 22.5 10.5l15 -39c-10.667 -6.66699 -22.167 -11.834 -34.5 -15.501s-25.5 -5.5 -39.5 -5.5z" />
    <glyph glyph-name="Wgrave" unicode="&#x1e80;" horiz-adv-x="882" 
d="M186 0l-151 700h78l119 -578l173 578h75l173 -576l120 576h75l-151 -700h-78l-177 593l-178 -593h-78zM429 799l-123 116h96l92 -116h-65z" />
    <glyph glyph-name="wgrave" unicode="&#x1e81;" horiz-adv-x="703" 
d="M155 0l-141 501h73l108 -400l125 400h66l124 -400l109 400h70l-142 -501h-71l-124 401l-125 -401h-72zM342 600l-123 116h96l92 -116h-65z" />
    <glyph glyph-name="Wacute" unicode="&#x1e82;" horiz-adv-x="882" 
d="M186 0l-151 700h78l119 -578l173 578h75l173 -576l120 576h75l-151 -700h-78l-177 593l-178 -593h-78zM375 799l94 116h95l-124 -116h-65z" />
    <glyph glyph-name="wacute" unicode="&#x1e83;" horiz-adv-x="703" 
d="M155 0l-141 501h73l108 -400l125 400h66l124 -400l109 400h70l-142 -501h-71l-124 401l-125 -401h-72zM288 600l94 116h95l-124 -116h-65z" />
    <glyph glyph-name="Wdieresis" unicode="&#x1e84;" horiz-adv-x="882" 
d="M186 0l-151 700h78l119 -578l173 578h75l173 -576l120 576h75l-151 -700h-78l-177 593l-178 -593h-78zM352 810c-14 0 -25.833 4.66699 -35.5 14s-14.5 20.666 -14.5 33.999s4.83301 24.666 14.5 33.999s21.5 14 35.5 14s25.833 -4.66699 35.5 -14
s14.5 -20.666 14.5 -33.999s-4.83301 -24.666 -14.5 -33.999s-21.5 -14 -35.5 -14zM526 810c-14 0 -25.833 4.66699 -35.5 14s-14.5 20.666 -14.5 33.999s4.83301 24.666 14.5 33.999s21.5 14 35.5 14s25.833 -4.66699 35.5 -14s14.5 -20.666 14.5 -33.999
s-4.83301 -24.666 -14.5 -33.999s-21.5 -14 -35.5 -14z" />
    <glyph glyph-name="wdieresis" unicode="&#x1e85;" horiz-adv-x="703" 
d="M155 0l-141 501h73l108 -400l125 400h66l124 -400l109 400h70l-142 -501h-71l-124 401l-125 -401h-72zM265 611c-14 0 -25.833 4.66699 -35.5 14s-14.5 20.666 -14.5 33.999s4.83301 24.666 14.5 33.999s21.5 14 35.5 14s25.833 -4.66699 35.5 -14
s14.5 -20.666 14.5 -33.999s-4.83301 -24.666 -14.5 -33.999s-21.5 -14 -35.5 -14zM439 611c-14 0 -25.833 4.66699 -35.5 14s-14.5 20.666 -14.5 33.999s4.83301 24.666 14.5 33.999s21.5 14 35.5 14s25.833 -4.66699 35.5 -14s14.5 -20.666 14.5 -33.999
s-4.83301 -24.666 -14.5 -33.999s-21.5 -14 -35.5 -14z" />
    <glyph glyph-name="Ygrave" unicode="&#x1ef2;" horiz-adv-x="639" 
d="M281 0v285l-278 415h90l229 -347l228 347h87l-279 -418v-282h-77zM310 799l-123 116h96l92 -116h-65z" />
    <glyph glyph-name="ygrave" unicode="&#x1ef3;" horiz-adv-x="510" 
d="M84 -214c-9.33301 0 -18.168 0.5 -26.501 1.5s-15.166 2.16699 -20.499 3.5v67c11.333 -2.66699 25.333 -4 42 -4c44 0 77.333 26 100 78l30 69l-204 500h82l162 -411l175 411h80l-250 -579c-14 -32 -29 -58 -45 -78s-34.167 -34.667 -54.5 -44s-43.833 -14 -70.5 -14z
M239.998 600l-123 116h96l92 -116h-65z" />
    <glyph glyph-name="enspace" unicode="&#x2002;" horiz-adv-x="500" 
 />
    <glyph glyph-name="emspace" unicode="&#x2003;" horiz-adv-x="1000" 
 />
    <glyph glyph-name="thinspace" unicode="&#x2009;" horiz-adv-x="175" 
 />
    <glyph glyph-name="hairspace" unicode="&#x200a;" horiz-adv-x="100" 
 />
    <glyph glyph-name="zerowidthspace" unicode="&#x200b;" horiz-adv-x="0" 
 />
    <glyph glyph-name="endash" unicode="&#x2013;" horiz-adv-x="547" 
d="M49 248v66h449v-66h-449z" />
    <glyph glyph-name="emdash" unicode="&#x2014;" horiz-adv-x="697" 
d="M49 248v66h599v-66h-599z" />
    <glyph glyph-name="uni2015" unicode="&#x2015;" horiz-adv-x="947" 
d="M49 248v66h849v-66h-849z" />
    <glyph glyph-name="quoteleft" unicode="&#x2018;" horiz-adv-x="250" 
d="M201 719l-58 -211h-80l80 211h58z" />
    <glyph glyph-name="quoteright" unicode="&#x2019;" horiz-adv-x="250" 
d="M63 508l58 211h80l-80 -211h-58z" />
    <glyph glyph-name="quotesinglbase" unicode="&#x201a;" horiz-adv-x="250" 
d="M44 -137l58 211h80l-80 -211h-58z" />
    <glyph glyph-name="quotedblleft" unicode="&#x201c;" horiz-adv-x="386" 
d="M201 719l-58 -211h-80l80 211h58zM337 719l-58 -211h-80l80 211h58z" />
    <glyph glyph-name="quotedblright" unicode="&#x201d;" horiz-adv-x="386" 
d="M199 508l58 211h80l-80 -211h-58zM63 508l58 211h80l-80 -211h-58z" />
    <glyph glyph-name="quotedblbase" unicode="&#x201e;" horiz-adv-x="386" 
d="M180 -137l58 211h80l-80 -211h-58zM44 -137l58 211h80l-80 -211h-58z" />
    <glyph glyph-name="dagger" unicode="&#x2020;" horiz-adv-x="425" 
d="M180 0v442h-126v60h126v198h66v-198h126v-60h-126v-442h-66z" />
    <glyph glyph-name="daggerdbl" unicode="&#x2021;" horiz-adv-x="425" 
d="M180 0v198h-126v60h126v184h-126v60h126v198h66v-198h126v-60h-126v-184h126v-60h-126v-198h-66z" />
    <glyph glyph-name="bullet" unicode="&#x2022;" horiz-adv-x="328" 
d="M163 252c-18 0 -34.667 4.5 -50 13.5s-27.5 21.167 -36.5 36.5s-13.5 32 -13.5 50c0 18.667 4.5 35.667 13.5 51s21.167 27.666 36.5 36.999s32 14 50 14c18.667 0 35.667 -4.66699 51 -14s27.666 -21.666 36.999 -36.999s14 -32.333 14 -51
c0 -18 -4.5 -34.667 -13.5 -50s-21.167 -27.5 -36.5 -36.5s-32.666 -13.5 -51.999 -13.5z" />
    <glyph glyph-name="ellipsis" unicode="&#x2026;" horiz-adv-x="639" 
d="M125 -6c-14 0 -26 5 -36 15s-15 22 -15 36s5 26 15 36s22 15 36 15s26 -5 36 -15s15 -22 15 -36s-5 -26 -15 -36s-22 -15 -36 -15zM320 -6c-14 0 -26 5 -36 15s-15 22 -15 36s5 26 15 36s22 15 36 15s26 -5 36 -15s15 -22 15 -36s-5 -26 -15 -36s-22 -15 -36 -15zM514 -6
c-14 0 -26 5 -36 15s-15 22 -15 36s5 26 15 36s22 15 36 15s26 -5 36 -15s15 -22 15 -36s-5 -26 -15 -36s-22 -15 -36 -15z" />
    <glyph glyph-name="perthousand" unicode="&#x2030;" horiz-adv-x="1084" 
d="M176 345c-44.667 0 -80.667 16.667 -108 50s-41 76.666 -41 129.999s13.667 96.666 41 129.999s63.333 50 108 50c43.333 0 78.666 -16.667 105.999 -50s41.333 -76.666 42 -129.999c-0.666992 -53.333 -14.667 -96.666 -42 -129.999s-62.666 -50 -105.999 -50zM176 391
c29.333 0 52.833 12.167 70.5 36.5s26.5 56.833 26.5 97.5c0 41.333 -8.83301 74.166 -26.5 98.499s-41.167 36.5 -70.5 36.5c-30 0 -53.667 -12.167 -71 -36.5s-26.333 -57.166 -27 -98.499c0.666992 -40.667 9.66699 -73.167 27 -97.5s41 -36.5 71 -36.5zM142 0l393 700
h62l-394 -700h-61zM566 -5c-44.667 0 -80.667 16.667 -108 50s-41 76.666 -41 129.999s13.667 96.666 41 129.999s63.333 50 108 50c43.333 0 78.666 -16.667 105.999 -50s41.333 -76.666 42 -129.999c-0.666992 -53.333 -14.667 -96.666 -42 -129.999
s-62.666 -50 -105.999 -50zM566 41c29.333 0 52.833 12.167 70.5 36.5s26.5 56.833 26.5 97.5c0 41.333 -8.83301 74.166 -26.5 98.499s-41.167 36.5 -70.5 36.5c-30 0 -53.667 -12.167 -71 -36.5s-26.333 -57.166 -27 -98.499c0.666992 -40.667 9.66699 -73.167 27 -97.5
s41 -36.5 71 -36.5zM910 -5c-44.667 0 -80.667 16.667 -108 50s-41 76.666 -41 129.999s13.667 96.666 41 129.999s63.333 50 108 50c43.333 0 78.666 -16.667 105.999 -50s41.333 -76.666 42 -129.999c-0.666992 -53.333 -14.667 -96.666 -42 -129.999
s-62.666 -50 -105.999 -50zM910 41c29.333 0 52.833 12.167 70.5 36.5s26.5 56.833 26.5 97.5c0 41.333 -8.83301 74.166 -26.5 98.499s-41.167 36.5 -70.5 36.5c-30 0 -53.667 -12.167 -71 -36.5s-26.333 -57.166 -27 -98.499c0.666992 -40.667 9.66699 -73.167 27 -97.5
s41 -36.5 71 -36.5z" />
    <glyph glyph-name="uni2032" unicode="&#x2032;" horiz-adv-x="250" 
d="M63 508l58 211h80l-80 -211h-58z" />
    <glyph glyph-name="uni2033" unicode="&#x2033;" horiz-adv-x="386" 
d="M199 508l58 211h80l-80 -211h-58zM63 508l58 211h80l-80 -211h-58z" />
    <glyph glyph-name="guilsinglleft" unicode="&#x2039;" horiz-adv-x="389" 
d="M265 0l-234 251l234 250h79l-228 -248l231 -253h-82z" />
    <glyph glyph-name="guilsinglright" unicode="&#x203a;" horiz-adv-x="389" 
d="M124 501l234 -251l-234 -250h-79l228 248l-231 253h82z" />
    <glyph glyph-name="fraction" unicode="&#x2044;" horiz-adv-x="578" 
d="M30 0l393 700h62l-394 -700h-61z" />
    <glyph glyph-name="uni2070" unicode="&#x2070;" horiz-adv-x="350" 
d="M176 345c-44.667 0 -80.667 16.667 -108 50s-41 76.666 -41 129.999s13.667 96.666 41 129.999s63.333 50 108 50c43.333 0 78.666 -16.667 105.999 -50s41.333 -76.666 42 -129.999c-0.666992 -53.333 -14.667 -96.666 -42 -129.999s-62.666 -50 -105.999 -50zM176 391
c29.333 0 52.833 12.167 70.5 36.5s26.5 56.833 26.5 97.5c0 41.333 -8.83301 74.166 -26.5 98.499s-41.167 36.5 -70.5 36.5c-30 0 -53.667 -12.167 -71 -36.5s-26.333 -57.166 -27 -98.499c0.666992 -40.667 9.66699 -73.167 27 -97.5s41 -36.5 71 -36.5z" />
    <glyph glyph-name="uni2074" unicode="&#x2074;" horiz-adv-x="330" 
d="M219 350v88h-198v42l192 220h58v-218h43v-44h-43v-88h-52zM82 482h137v157z" />
    <glyph glyph-name="uni2075" unicode="&#x2075;" horiz-adv-x="309" 
d="M147 345c-50 0 -92.334 15.667 -127.001 47l32 36c15.333 -14 30.666 -24 45.999 -30s32.333 -9 51 -9c24.667 0 44.5 6.5 59.5 19.5s22.5 29.833 22.5 50.5c0 19.333 -8 35.5 -24 48.5s-36.667 19.5 -62 19.5c-11.333 0 -23.166 -1 -35.499 -3
s-24.833 -5.66699 -37.5 -11l-32 10l8 177h216v-45h-174l-4 -99c11.333 4.66699 22.833 8 34.5 10s23.167 3 34.5 3c38.667 0 69.834 -10 93.501 -30s35.5 -46.333 35.5 -79c0 -34.667 -12.667 -62.5 -38 -83.5s-58.333 -31.5 -99 -31.5z" />
    <glyph glyph-name="uni2076" unicode="&#x2076;" horiz-adv-x="326" 
d="M175 345c-44 0 -79.667 15.668 -107 47.001s-41 72.333 -41 123c0 57.333 15.5 103.166 46.5 137.499s72.167 51.5 123.5 51.5c15.333 0 31.333 -2.5 48 -7.5s31 -11.833 43 -20.5l-28 -39c-10 7.33301 -20.833 12.666 -32.5 15.999s-23.5 5 -35.5 5
c-34.667 0 -61.667 -11.667 -81 -35s-30 -56.666 -32 -99.999c12.667 14 28 25.167 46 33.5s36.333 12.5 55 12.5c35.333 0 64.5 -10.333 87.5 -31s34.5 -46.667 34.5 -78c0 -32.667 -12 -60 -36 -82s-54.333 -33 -91 -33zM171 527.001c-16.667 0 -32.833 -4 -48.5 -12
s-29.167 -19.333 -40.5 -34c4.66699 -28 15.167 -50.167 31.5 -66.5s36.5 -24.5 60.5 -24.5c22 0 40.167 6.5 54.5 19.5s21.5 29.5 21.5 49.5s-7.33301 36.333 -22 49s-33.667 19 -57 19z" />
    <glyph glyph-name="uni2077" unicode="&#x2077;" horiz-adv-x="298" 
d="M56 350l172 305h-212v45h271v-39l-170 -311h-61z" />
    <glyph glyph-name="uni2078" unicode="&#x2078;" horiz-adv-x="327" 
d="M164 345c-40 0 -72.666 9.5 -97.999 28.5s-38 43.167 -38 72.5c0 19.333 6.16699 36.833 18.5 52.5s28.833 26.834 49.5 33.501c-16.667 7.33301 -30 18.166 -40 32.499s-15 29.833 -15 46.5c0 27.333 11.667 50 35 68s52.333 27 87 27c35.333 0 64.666 -9 87.999 -27
s35 -40.667 35 -68c0 -16.667 -5 -32.167 -15 -46.5s-23.333 -25.166 -40 -32.499c20 -6.66699 36.167 -17.834 48.5 -33.501s18.5 -33.167 18.5 -52.5c0 -29.333 -12.5 -53.5 -37.5 -72.5s-57.167 -28.5 -96.5 -28.5zM164.001 553c20 0 36.667 5.16699 50 15.5
s20 23.5 20 39.5s-6.66699 29.333 -20 40s-30 16 -50 16c-20.667 0 -37.834 -5.33301 -51.501 -16s-20.5 -24 -20.5 -40s6.83301 -29.167 20.5 -39.5s30.834 -15.5 51.501 -15.5zM164.001 388c23.333 0 43 5.83301 59 17.5s24 26.167 24 43.5c0 18 -8 32.833 -24 44.5
s-35.667 17.5 -59 17.5c-24.667 0 -44.834 -5.83301 -60.501 -17.5s-23.5 -26.5 -23.5 -44.5c0 -17.333 7.83301 -31.833 23.5 -43.5s35.834 -17.5 60.501 -17.5z" />
    <glyph glyph-name="uni2079" unicode="&#x2079;" horiz-adv-x="326" 
d="M151 704c44 0 79.668 -15.666 107.001 -46.999s41 -72.333 41 -123c0 -56.667 -15.5 -102.334 -46.5 -137.001s-72.167 -52 -123.5 -52c-15.333 0 -31.333 2.5 -48 7.5s-31 11.833 -43 20.5l28 39c10 -6.66699 20.833 -11.834 32.5 -15.501s23.5 -5.5 35.5 -5.5
c34.667 0 61.667 11.833 81 35.5s30 56.834 32 99.501c-12.667 -14 -27.834 -25.167 -45.501 -33.5s-36.167 -12.5 -55.5 -12.5c-35.333 0 -64.5 10.333 -87.5 31s-34.5 46.667 -34.5 78c0 33.333 12 60.833 36 82.5s54.333 32.5 91 32.5zM155.001 522.001
c17.333 0 33.668 4 49.001 12s28.666 19.333 39.999 34c-4.66699 28 -15.167 50.167 -31.5 66.5s-36.5 24.5 -60.5 24.5c-22 0 -40.167 -6.5 -54.5 -19.5s-21.5 -29.5 -21.5 -49.5s7.33301 -36.333 22 -49s33.667 -19 57 -19z" />
    <glyph glyph-name="uni2080" unicode="&#x2080;" horiz-adv-x="350" 
d="M176 -5c-44.667 0 -80.667 16.667 -108 50s-41 76.666 -41 129.999s13.667 96.666 41 129.999s63.333 50 108 50c43.333 0 78.666 -16.667 105.999 -50s41.333 -76.666 42 -129.999c-0.666992 -53.333 -14.667 -96.666 -42 -129.999s-62.666 -50 -105.999 -50zM176 41
c29.333 0 52.833 12.167 70.5 36.5s26.5 56.833 26.5 97.5c0 41.333 -8.83301 74.166 -26.5 98.499s-41.167 36.5 -70.5 36.5c-30 0 -53.667 -12.167 -71 -36.5s-26.333 -57.166 -27 -98.499c0.666992 -40.667 9.66699 -73.167 27 -97.5s41 -36.5 71 -36.5z" />
    <glyph glyph-name="uni2081" unicode="&#x2081;" horiz-adv-x="165" 
d="M83 0v296l-63 -26v45l82 35h33v-350h-52z" />
    <glyph glyph-name="uni2082" unicode="&#x2082;" horiz-adv-x="291" 
d="M26 0v38.001l136 125c19.333 18.667 32.833 34.167 40.5 46.5s11.5 25.166 11.5 38.499c0 18 -6.66699 32.833 -20 44.5s-30.666 17.5 -51.999 17.5c-16.667 0 -32.334 -3.33301 -47.001 -10s-31 -17.667 -49 -33l-29 35c19.333 17.333 39.5 30.5 60.5 39.5
s42.833 13.5 65.5 13.5c35.333 0 64.5 -9.66699 87.5 -29s34.5 -44 34.5 -74c0 -20.667 -5 -39.5 -15 -56.5s-28.333 -37.833 -55 -62.5l-97 -89h172v-44h-244z" />
    <glyph glyph-name="uni2083" unicode="&#x2083;" horiz-adv-x="313" 
d="M151 -5c-26 0 -50.502 4.49609 -73.502 13.4961s-42.833 21.833 -59.5 38.5l35 33c14.667 -14.667 29.5 -25 44.5 -31s32.833 -9 53.5 -9c24.667 0 44.334 5.5 59.001 16.5s22 25.5 22 43.5c0 16 -7.16699 28.833 -21.5 38.5s-33.166 14.5 -56.499 14.5h-31v42h27
c20 0 36.667 5.83301 50 17.5s20 25.834 20 42.501c0 16 -6.66699 29.167 -20 39.5s-30.333 15.5 -51 15.5c-18.667 0 -34.834 -3.16699 -48.501 -9.5s-28.167 -17.166 -43.5 -32.499l-35 33c17.333 17.333 37 30.833 59 40.5s45.333 14.5 70 14.5
c35.333 0 64.5 -9.16699 87.5 -27.5s34.167 -41.5 33.5 -69.5c0.666992 -17.333 -4.16602 -33.166 -14.499 -47.499s-24.5 -25.5 -42.5 -33.5c21.333 -6.66699 38.333 -17.167 51 -31.5s19 -31.166 19 -50.499c0 -29.333 -12.5 -53.5 -37.5 -72.5s-57.167 -28.5 -96.5 -28.5
z" />
    <glyph glyph-name="uni2084" unicode="&#x2084;" horiz-adv-x="330" 
d="M219 0v88h-198v42l192 220h58v-218h43v-44h-43v-88h-52zM82 132h137v157z" />
    <glyph glyph-name="uni2085" unicode="&#x2085;" horiz-adv-x="309" 
d="M147 -5c-50 0 -92.334 15.667 -127.001 47l32 36c15.333 -14 30.666 -24 45.999 -30s32.333 -9 51 -9c24.667 0 44.5 6.5 59.5 19.5s22.5 29.833 22.5 50.5c0 19.333 -8 35.5 -24 48.5s-36.667 19.5 -62 19.5c-11.333 0 -23.166 -1 -35.499 -3
s-24.833 -5.66699 -37.5 -11l-32 10l8 177h216v-45h-174l-4 -99c11.333 4.66699 22.833 8 34.5 10s23.167 3 34.5 3c38.667 0 69.834 -10 93.501 -30s35.5 -46.333 35.5 -79c0 -34.667 -12.667 -62.5 -38 -83.5s-58.333 -31.5 -99 -31.5z" />
    <glyph glyph-name="uni2086" unicode="&#x2086;" horiz-adv-x="326" 
d="M175 -5c-44 0 -79.667 15.668 -107 47.001s-41 72.333 -41 123c0 57.333 15.5 103.166 46.5 137.499s72.167 51.5 123.5 51.5c15.333 0 31.333 -2.5 48 -7.5s31 -11.833 43 -20.5l-28 -39c-10 7.33301 -20.833 12.666 -32.5 15.999s-23.5 5 -35.5 5
c-34.667 0 -61.667 -11.667 -81 -35s-30 -56.666 -32 -99.999c12.667 14 28 25.167 46 33.5s36.333 12.5 55 12.5c35.333 0 64.5 -10.333 87.5 -31s34.5 -46.667 34.5 -78c0 -32.667 -12 -60 -36 -82s-54.333 -33 -91 -33zM171 177.001c-16.667 0 -32.833 -4 -48.5 -12
s-29.167 -19.333 -40.5 -34c4.66699 -28 15.167 -50.167 31.5 -66.5s36.5 -24.5 60.5 -24.5c22 0 40.167 6.5 54.5 19.5s21.5 29.5 21.5 49.5s-7.33301 36.333 -22 49s-33.667 19 -57 19z" />
    <glyph glyph-name="uni2087" unicode="&#x2087;" horiz-adv-x="298" 
d="M56 0l172 305h-212v45h271v-39l-170 -311h-61z" />
    <glyph glyph-name="uni2088" unicode="&#x2088;" horiz-adv-x="327" 
d="M164 -5c-40 0 -72.666 9.5 -97.999 28.5s-38 43.167 -38 72.5c0 19.333 6.16699 36.833 18.5 52.5s28.833 26.834 49.5 33.501c-16.667 7.33301 -30 18.166 -40 32.499s-15 29.833 -15 46.5c0 27.333 11.667 50 35 68s52.333 27 87 27c35.333 0 64.666 -9 87.999 -27
s35 -40.667 35 -68c0 -16.667 -5 -32.167 -15 -46.5s-23.333 -25.166 -40 -32.499c20 -6.66699 36.167 -17.834 48.5 -33.501s18.5 -33.167 18.5 -52.5c0 -29.333 -12.5 -53.5 -37.5 -72.5s-57.167 -28.5 -96.5 -28.5zM164.001 203c20 0 36.667 5.16699 50 15.5
s20 23.5 20 39.5s-6.66699 29.333 -20 40s-30 16 -50 16c-20.667 0 -37.834 -5.33301 -51.501 -16s-20.5 -24 -20.5 -40s6.83301 -29.167 20.5 -39.5s30.834 -15.5 51.501 -15.5zM164.001 38c23.333 0 43 5.83301 59 17.5s24 26.167 24 43.5c0 18 -8 32.833 -24 44.5
s-35.667 17.5 -59 17.5c-24.667 0 -44.834 -5.83301 -60.501 -17.5s-23.5 -26.5 -23.5 -44.5c0 -17.333 7.83301 -31.833 23.5 -43.5s35.834 -17.5 60.501 -17.5z" />
    <glyph glyph-name="uni2089" unicode="&#x2089;" horiz-adv-x="326" 
d="M151 354c44 0 79.667 -15.668 107 -47.001s41 -72.333 41 -123c0 -57.333 -15.5 -103.166 -46.5 -137.499s-72.167 -51.5 -123.5 -51.5c-15.333 0 -31.333 2.5 -48 7.5s-31 11.833 -43 20.5l28 39c10 -7.33301 20.833 -12.666 32.5 -15.999s23.5 -5 35.5 -5
c34.667 0 61.667 11.667 81 35s30 56.666 32 99.999c-12.667 -14 -28 -25.167 -46 -33.5s-36.333 -12.5 -55 -12.5c-35.333 0 -64.5 10.333 -87.5 31s-34.5 46.667 -34.5 78c0 32.667 12 60 36 82s54.333 33 91 33zM155 171.999c16.667 0 32.833 4 48.5 12
s29.167 19.333 40.5 34c-4.66699 28 -15.167 50.167 -31.5 66.5s-36.5 24.5 -60.5 24.5c-22 0 -40.167 -6.5 -54.5 -19.5s-21.5 -29.5 -21.5 -49.5s7.33301 -36.333 22 -49s33.667 -19 57 -19z" />
    <glyph glyph-name="Euro" unicode="&#x20ac;" horiz-adv-x="775" 
d="M463 -11c-55.333 0 -105.667 11.333 -151 34s-83.166 54.167 -113.499 94.5s-51.5 87.5 -63.5 141.5h-102v51h95c-0.666992 6.66699 -1.16699 13.334 -1.5 20.001s-0.5 13.334 -0.5 20.001c0 7.33301 0.166992 14.666 0.5 21.999s0.833008 14.333 1.5 21h-95v50h103
c12 54 33.333 101 64 141s68.834 71.167 114.501 93.5s96.167 33.5 151.5 33.5s105.5 -10.5 150.5 -31.5s82.833 -52.167 113.5 -93.5l-53 -41c-24.667 33.333 -55.167 58.666 -91.5 75.999s-76.833 26 -121.5 26c-42.667 0 -81.334 -8.33301 -116.001 -25
s-63.834 -40.167 -87.501 -70.5s-40.834 -66.5 -51.501 -108.5h283l-18 -50h-274c-0.666992 -6.66699 -1.16699 -13.667 -1.5 -21s-0.5 -14.666 -0.5 -21.999c0 -6.66699 0.166992 -13.334 0.5 -20.001s0.833008 -13.334 1.5 -20.001h245l-18 -51h-218
c10 -41.333 26.833 -77.5 50.5 -108.5s52.834 -54.833 87.501 -71.5s73.334 -25 116.001 -25c43.333 0 83.833 8.83301 121.5 26.5s68.167 42.834 91.5 75.501l51 -40c-30.667 -40.667 -68.834 -72 -114.501 -94s-95.5 -33 -149.5 -33z" />
    <glyph glyph-name="trademark" unicode="&#x2122;" horiz-adv-x="675" 
d="M324 421v279h55l88 -181l88 181h55v-279h-42l2 225l-103 -206l-102 203l1 -222h-42zM132 421v241h-99v38h241v-38h-99v-241h-43z" />
    <glyph glyph-name="uni2191" unicode="&#x2191;" horiz-adv-x="505" 
d="M216 0v609l-163 -215l-48 38l246 318l245 -318l-47 -37l-165 219v-614h-68z" />
    <glyph glyph-name="uni2193" unicode="&#x2193;" horiz-adv-x="505" 
d="M285 700v-609l163 215l48 -38l-246 -318l-245 318l47 37l165 -219v614h68z" />
    <glyph glyph-name="minus" unicode="&#x2212;" 
d="M102 328v60h396v-60h-396z" />
    <glyph glyph-name="uni2215" unicode="&#x2215;" horiz-adv-x="578" 
d="M30 0l393 700h62l-393 -700h-62z" />
    <glyph glyph-name="notequal" unicode="&#x2260;" 
d="M111 123l84 122h-93v60h134l71 103h-205v60h246l83 121h58l-83 -121h92v-60h-133l-71 -103h204v-60h-245l-84 -122h-58z" />
    <glyph glyph-name="fi" unicode="&#xfb01;" horiz-adv-x="573" 
d="M135 0l-0.00292969 437.999h-118v63h118v95c0 49.333 13.333 87 40 113s65 39 115 39c13.333 0 25.333 -0.666992 36 -2s21 -3.66602 31 -6.99902v-66c-11.333 3.33301 -21.666 5.83301 -30.999 7.5s-19.666 2.5 -30.999 2.5c-29.333 0 -51.166 -7.16699 -65.499 -21.5
s-21.5 -36.833 -21.5 -67.5v-93h149v-63h-149v-438h-73zM436.997 -0.000976562v501h74v-501h-74zM473.997 596.999c-13.333 0 -25 5 -35 15s-15 22 -15 36c0 13.333 5 24.833 15 34.5s21.667 14.5 35 14.5c14 0 25.833 -4.83301 35.5 -14.5s14.5 -21.5 14.5 -35.5
c0 -13.333 -4.83301 -25 -14.5 -35s-21.5 -15 -35.5 -15z" />
    <glyph glyph-name="fl" unicode="&#xfb02;" horiz-adv-x="573" 
d="M135 0l-0.00292969 437.999h-118v63h118v95c0 49.333 13.333 87 40 113s65 39 115 39c13.333 0 25.333 -0.666992 36 -2s21 -3.66602 31 -6.99902v-66c-11.333 3.33301 -21.666 5.83301 -30.999 7.5s-19.666 2.5 -30.999 2.5c-29.333 0 -51.166 -7.16699 -65.499 -21.5
s-21.5 -36.833 -21.5 -67.5v-93h149v-63h-149v-438h-73zM436.997 -0.000976562v700l74 17v-717h-74z" />
    <glyph glyph-name="uniFEFF" unicode="&#xfeff;" horiz-adv-x="0" 
 />
    <glyph glyph-name="uniFFFD" unicode="&#xfffd;" 
d="M103 -100v850h394v-850h-394z" />
    <glyph glyph-name="NULL" horiz-adv-x="215" 
 />
    <glyph glyph-name="CR" horiz-adv-x="215" 
 />
    <glyph glyph-name="idotaccent" horiz-adv-x="198" 
d="M63 0v501h74v-501h-74zM100 597c-13.333 0 -25 5 -35 15s-15 22 -15 36c0 13.333 5 24.833 15 34.5s21.667 14.5 35 14.5c14 0 25.833 -4.83301 35.5 -14.5s14.5 -21.5 14.5 -35.5c0 -13.333 -4.83301 -25 -14.5 -35s-21.5 -15 -35.5 -15z" />
    <glyph glyph-name="a.school" horiz-adv-x="590" 
d="M292 -8c-46.667 0 -89.165 11.5 -127.498 34.5s-68.666 54 -90.999 93s-33.5 82.833 -33.5 131.5s11.167 92.334 33.5 131.001s52.666 69.5 90.999 92.5s81.166 34.5 128.499 34.5c29.333 0 57.666 -4.83301 84.999 -14.5s52.333 -23.834 75 -42.501v49h74v-501h-73v53
c-44 -40.667 -98 -61 -162 -61zM299.002 57c31.333 0 60.5 6.16699 87.5 18.5s49.167 29.5 66.5 51.5v248c-17.333 21.333 -39.5 38.166 -66.5 50.499s-56.167 18.5 -87.5 18.5c-34.667 0 -66.167 -8.33301 -94.5 -25s-50.666 -39.5 -66.999 -68.5
s-24.5 -61.833 -24.5 -98.5s8.16699 -69.667 24.5 -99s38.666 -52.666 66.999 -69.999s59.833 -26 94.5 -26z" />
    <glyph glyph-name="aacute.school" horiz-adv-x="590" 
d="M292 -8c-46.667 0 -89.165 11.5 -127.498 34.5s-68.666 54 -90.999 93s-33.5 82.833 -33.5 131.5s11.167 92.334 33.5 131.001s52.666 69.5 90.999 92.5s81.166 34.5 128.499 34.5c29.333 0 57.666 -4.83301 84.999 -14.5s52.333 -23.834 75 -42.501v49h74v-501h-73v53
c-44 -40.667 -98 -61 -162 -61zM299.002 57c31.333 0 60.5 6.16699 87.5 18.5s49.167 29.5 66.5 51.5v248c-17.333 21.333 -39.5 38.166 -66.5 50.499s-56.167 18.5 -87.5 18.5c-34.667 0 -66.167 -8.33301 -94.5 -25s-50.666 -39.5 -66.999 -68.5
s-24.5 -61.833 -24.5 -98.5s8.16699 -69.667 24.5 -99s38.666 -52.666 66.999 -69.999s59.833 -26 94.5 -26zM231.002 600l94 116h95l-124 -116h-65z" />
    <glyph glyph-name="abreve.school" horiz-adv-x="590" 
d="M292 -8c-46.667 0 -89.165 11.5 -127.498 34.5s-68.666 54 -90.999 93s-33.5 82.833 -33.5 131.5s11.167 92.334 33.5 131.001s52.666 69.5 90.999 92.5s81.166 34.5 128.499 34.5c29.333 0 57.666 -4.83301 84.999 -14.5s52.333 -23.834 75 -42.501v49h74v-501h-73v53
c-44 -40.667 -98 -61 -162 -61zM299.002 57c31.333 0 60.5 6.16699 87.5 18.5s49.167 29.5 66.5 51.5v248c-17.333 21.333 -39.5 38.166 -66.5 50.499s-56.167 18.5 -87.5 18.5c-34.667 0 -66.167 -8.33301 -94.5 -25s-50.666 -39.5 -66.999 -68.5
s-24.5 -61.833 -24.5 -98.5s8.16699 -69.667 24.5 -99s38.666 -52.666 66.999 -69.999s59.833 -26 94.5 -26zM295.002 592c-40 0 -73.501 10.832 -100.501 32.499s-44.833 51.834 -53.5 90.501l52 13c14 -58 48 -87 102 -87c25.333 0 46.833 7.33301 64.5 22
s30.167 36.334 37.5 65.001l52 -13c-8.66699 -38.667 -26.667 -68.834 -54 -90.501s-60.666 -32.5 -99.999 -32.5z" />
    <glyph glyph-name="acircumflex.school" horiz-adv-x="590" 
d="M292 -8c-46.667 0 -89.165 11.5 -127.498 34.5s-68.666 54 -90.999 93s-33.5 82.833 -33.5 131.5s11.167 92.334 33.5 131.001s52.666 69.5 90.999 92.5s81.166 34.5 128.499 34.5c29.333 0 57.666 -4.83301 84.999 -14.5s52.333 -23.834 75 -42.501v49h74v-501h-73v53
c-44 -40.667 -98 -61 -162 -61zM299.002 57c31.333 0 60.5 6.16699 87.5 18.5s49.167 29.5 66.5 51.5v248c-17.333 21.333 -39.5 38.166 -66.5 50.499s-56.167 18.5 -87.5 18.5c-34.667 0 -66.167 -8.33301 -94.5 -25s-50.666 -39.5 -66.999 -68.5
s-24.5 -61.833 -24.5 -98.5s8.16699 -69.667 24.5 -99s38.666 -52.666 66.999 -69.999s59.833 -26 94.5 -26zM378.002 596l-84 80l-83 -80h-60l104 121h80l104 -121h-61z" />
    <glyph glyph-name="adieresis.school" horiz-adv-x="590" 
d="M292 -8c-46.667 0 -89.165 11.5 -127.498 34.5s-68.666 54 -90.999 93s-33.5 82.833 -33.5 131.5s11.167 92.334 33.5 131.001s52.666 69.5 90.999 92.5s81.166 34.5 128.499 34.5c29.333 0 57.666 -4.83301 84.999 -14.5s52.333 -23.834 75 -42.501v49h74v-501h-73v53
c-44 -40.667 -98 -61 -162 -61zM299.002 57c31.333 0 60.5 6.16699 87.5 18.5s49.167 29.5 66.5 51.5v248c-17.333 21.333 -39.5 38.166 -66.5 50.499s-56.167 18.5 -87.5 18.5c-34.667 0 -66.167 -8.33301 -94.5 -25s-50.666 -39.5 -66.999 -68.5
s-24.5 -61.833 -24.5 -98.5s8.16699 -69.667 24.5 -99s38.666 -52.666 66.999 -69.999s59.833 -26 94.5 -26zM208.002 611c-14 0 -25.833 4.66699 -35.5 14s-14.5 20.666 -14.5 33.999s4.83301 24.666 14.5 33.999s21.5 14 35.5 14s25.833 -4.66699 35.5 -14
s14.5 -20.666 14.5 -33.999s-4.83301 -24.666 -14.5 -33.999s-21.5 -14 -35.5 -14zM382.002 611c-14 0 -25.833 4.66699 -35.5 14s-14.5 20.666 -14.5 33.999s4.83301 24.666 14.5 33.999s21.5 14 35.5 14s25.833 -4.66699 35.5 -14s14.5 -20.666 14.5 -33.999
s-4.83301 -24.666 -14.5 -33.999s-21.5 -14 -35.5 -14z" />
    <glyph glyph-name="agrave.school" horiz-adv-x="590" 
d="M292 -8c-46.667 0 -89.165 11.5 -127.498 34.5s-68.666 54 -90.999 93s-33.5 82.833 -33.5 131.5s11.167 92.334 33.5 131.001s52.666 69.5 90.999 92.5s81.166 34.5 128.499 34.5c29.333 0 57.666 -4.83301 84.999 -14.5s52.333 -23.834 75 -42.501v49h74v-501h-73v53
c-44 -40.667 -98 -61 -162 -61zM299.002 57c31.333 0 60.5 6.16699 87.5 18.5s49.167 29.5 66.5 51.5v248c-17.333 21.333 -39.5 38.166 -66.5 50.499s-56.167 18.5 -87.5 18.5c-34.667 0 -66.167 -8.33301 -94.5 -25s-50.666 -39.5 -66.999 -68.5
s-24.5 -61.833 -24.5 -98.5s8.16699 -69.667 24.5 -99s38.666 -52.666 66.999 -69.999s59.833 -26 94.5 -26zM285.002 600l-123 116h96l92 -116h-65z" />
    <glyph glyph-name="amacron.school" horiz-adv-x="590" 
d="M292 -8c-46.667 0 -89.165 11.5 -127.498 34.5s-68.666 54 -90.999 93s-33.5 82.833 -33.5 131.5s11.167 92.334 33.5 131.001s52.666 69.5 90.999 92.5s81.166 34.5 128.499 34.5c29.333 0 57.666 -4.83301 84.999 -14.5s52.333 -23.834 75 -42.501v49h74v-501h-73v53
c-44 -40.667 -98 -61 -162 -61zM299.002 57c31.333 0 60.5 6.16699 87.5 18.5s49.167 29.5 66.5 51.5v248c-17.333 21.333 -39.5 38.166 -66.5 50.499s-56.167 18.5 -87.5 18.5c-34.667 0 -66.167 -8.33301 -94.5 -25s-50.666 -39.5 -66.999 -68.5
s-24.5 -61.833 -24.5 -98.5s8.16699 -69.667 24.5 -99s38.666 -52.666 66.999 -69.999s59.833 -26 94.5 -26zM153.002 621v53h284v-53h-284z" />
    <glyph glyph-name="aogonek.school" horiz-adv-x="590" 
d="M468 -221c-29.333 0 -52.999 7.83496 -70.999 23.502s-27 36.5 -27 62.5c0 23.333 7.83301 45.666 23.5 66.999s40.834 44 75.501 68h-15v53c-44 -40.667 -98 -61 -162 -61c-46.667 0 -89.167 11.5 -127.5 34.5s-68.666 54 -90.999 93s-33.5 82.833 -33.5 131.5
s11.167 92.334 33.5 131.001s52.666 69.5 90.999 92.5s81.166 34.5 128.499 34.5c29.333 0 57.666 -4.83301 84.999 -14.5s52.333 -23.834 75 -42.501v49h74v-501c-36.667 -22.667 -63.5 -44 -80.5 -64s-25.5 -39.667 -25.5 -59c0 -16.667 5 -29.5 15 -38.5
s24.333 -13.5 43 -13.5c8.66699 0 17.167 1.16699 25.5 3.5s15.833 5.83301 22.5 10.5l15 -39c-10.667 -6.66699 -22.167 -11.834 -34.5 -15.501s-25.5 -5.5 -39.5 -5.5zM113.001 252.002c0 -36.667 8.16699 -69.667 24.5 -99s38.666 -52.666 66.999 -69.999
s59.833 -26 94.5 -26c31.333 0 60.5 6.16699 87.5 18.5s49.167 29.5 66.5 51.5v248c-17.333 21.333 -39.5 38.166 -66.5 50.499s-56.167 18.5 -87.5 18.5c-34.667 0 -66.167 -8.33301 -94.5 -25s-50.666 -39.5 -66.999 -68.5s-24.5 -61.833 -24.5 -98.5z" />
    <glyph glyph-name="aring.school" horiz-adv-x="590" 
d="M292 -8c-46.667 0 -89.165 11.5 -127.498 34.5s-68.666 54 -90.999 93s-33.5 82.833 -33.5 131.5s11.167 92.334 33.5 131.001s52.666 69.5 90.999 92.5s81.166 34.5 128.499 34.5c29.333 0 57.666 -4.83301 84.999 -14.5s52.333 -23.834 75 -42.501v49h74v-501h-73v53
c-44 -40.667 -98 -61 -162 -61zM299.002 57c31.333 0 60.5 6.16699 87.5 18.5s49.167 29.5 66.5 51.5v248c-17.333 21.333 -39.5 38.166 -66.5 50.499s-56.167 18.5 -87.5 18.5c-34.667 0 -66.167 -8.33301 -94.5 -25s-50.666 -39.5 -66.999 -68.5
s-24.5 -61.833 -24.5 -98.5s8.16699 -69.667 24.5 -99s38.666 -52.666 66.999 -69.999s59.833 -26 94.5 -26zM295.002 583c-20.667 0 -39.5 5 -56.5 15s-30.5 23.5 -40.5 40.5s-15 35.5 -15 55.5c0 20.667 5 39.334 15 56.001s23.5 30 40.5 40s35.833 15 56.5 15
s39.5 -5 56.5 -15s30.5 -23.333 40.5 -40s15 -35.334 15 -56.001c0 -20 -5 -38.5 -15 -55.5s-23.5 -30.5 -40.5 -40.5s-35.833 -15 -56.5 -15zM295.002 624c19.333 0 35.833 6.83301 49.5 20.5s20.5 30.167 20.5 49.5s-6.83301 35.833 -20.5 49.5s-30.167 20.5 -49.5 20.5
s-35.833 -6.83301 -49.5 -20.5s-20.5 -30.167 -20.5 -49.5s6.83301 -35.833 20.5 -49.5s30.167 -20.5 49.5 -20.5z" />
    <glyph glyph-name="atilde.school" horiz-adv-x="590" 
d="M292 -8c-46.667 0 -89.165 11.5 -127.498 34.5s-68.666 54 -90.999 93s-33.5 82.833 -33.5 131.5s11.167 92.334 33.5 131.001s52.666 69.5 90.999 92.5s81.166 34.5 128.499 34.5c29.333 0 57.666 -4.83301 84.999 -14.5s52.333 -23.834 75 -42.501v49h74v-501h-73v53
c-44 -40.667 -98 -61 -162 -61zM299.002 57c31.333 0 60.5 6.16699 87.5 18.5s49.167 29.5 66.5 51.5v248c-17.333 21.333 -39.5 38.166 -66.5 50.499s-56.167 18.5 -87.5 18.5c-34.667 0 -66.167 -8.33301 -94.5 -25s-50.666 -39.5 -66.999 -68.5
s-24.5 -61.833 -24.5 -98.5s8.16699 -69.667 24.5 -99s38.666 -52.666 66.999 -69.999s59.833 -26 94.5 -26zM179.002 595l-52 10c14.667 66.667 46 100 94 100c18 0 35.5 -4.5 52.5 -13.5s33.167 -18.167 48.5 -27.5s30 -14 44 -14c11.333 0 20.5 4.33301 27.5 13
s12.833 23.334 17.5 44.001l51 -10c-6.66699 -33.333 -18 -58.333 -34 -75s-36 -25 -60 -25c-17.333 0 -34.5 4.66699 -51.5 14l-49 27.5c-15.667 9 -30.5 13.5 -44.5 13.5c-12 0 -21.333 -4.33301 -28 -13s-12 -23.334 -16 -44.001z" />
    </font>
</defs>
</svg>
